<?xml version="1.0" standalone="no"?>
<!DOCTYPE svg PUBLIC "-//W3C//DTD SVG 1.1//EN" "http://www.w3.org/Graphics/SVG/1.1/DTD/svg11.dtd" >
<svg xmlns="http://www.w3.org/2000/svg">
<metadata>Generated by IcoMoon</metadata>
<defs>
<font id="WPMU-DEV-App-Icons" horiz-adv-x="1024">
<font-face units-per-em="1024" ascent="960" descent="-64" />
<missing-glyph horiz-adv-x="1024" />
<glyph unicode="&#x20;" horiz-adv-x="512" d="" />
<glyph unicode="&#x30;" glyph-name="logo_alt" d="M514 960c-284 0-514-230-514-514s230-514 514-514c284 0 514 230 514 514s-230 514-514 514zM514 10c-242 0-436 196-436 436 0 242 194 436 436 436 240 0 436-194 436-436 0-240-196-436-436-436zM774 732l-60-48v-322c0-20-14-34-30-34-18 0-32 14-32 34v172c0 56-40 100-90 100s-90-44-90-100v-172c0-20-14-34-30-34s-30 14-30 34v172c0 56-40 100-90 100s-90-44-90-100v0-370l58 46v324c0 18 14 34 32 34 16 0 30-16 30-34v-172c0-56 40-102 90-102s90 46 90 102v0 172c0 18 14 34 30 34 18 0 32-16 32-34v-172c0-56 40-102 90-102s90 46 90 102v0 370z" />
<glyph unicode="&#x31;" glyph-name="devman" d="M798 492c18 10 32 30 32 52 0 32-26 58-58 58-34 120-62 230-62 230s-34 128-198 128c-164 0-198-128-198-128s-28-110-62-230c-32 0-58-26-58-58 0-22 14-42 32-52-32-118-62-224-62-224 0-10 22-22 56-28 10 40 22 98 36 146 22 76 58 120 120 142-36 12-54 58-62 110l124-66 78 74 14-198h-110c0 0 70-36 146-36 8 6 4 84 0 182l22-26 126 66c-8-48-26-94-64-106 64-26 104-70 122-142 10-48 26-106 36-146 34 6 56 18 56 28-4 0-34 106-66 224zM420 656l-90 74 150-16zM604 656l-62 58 150 16zM798 232c0 0-148-66-216-66-70 0-66 58-66 66h-8c-4-8 4-66-66-66-68 0-216 66-216 66l-44-182 330-114 332 114zM458 338h108v-36h-108z" />
<glyph unicode="&#x32;" glyph-name="fix" horiz-adv-x="999" d="M783.177 474.331c-0.348-0.003-0.76-0.004-1.172-0.004-24.883 0-48.442 5.667-69.457 15.781-34.513 16.040-53.896 11.103-78.582-19.617-112.823-141.166-226.926-281.6-348.526-415.086q-38.766-42.24-79.36-82.834c-20.826-22.637-50.592-36.771-83.659-36.771-16.787 0-32.724 3.643-47.062 10.181-43.521 16.596-74.586 58.691-74.992 108.094-0.292 3.121-0.458 6.69-0.458 10.298 0 32.327 13.337 61.54 34.809 82.435 53.603 52.871 106.083 106.997 162.22 157.099 107.703 95.817 217.417 189.257 325.486 283.429 27.794 24.137 33.097 44.617 18.286 79.36-9.86 21.246-15.611 46.116-15.611 72.329 0 16.558 2.295 32.579 6.584 47.764 2.76 24.535 23.467 58.079 53.097 80.421-50.767-31.77 36.317 36.676 136.106 82.067 11.91 5.812 25.84 9.77 40.592 10.707 18.593 0.016 25.908-14.796 15.485-30.887 5.996 7.73-0.822-2.75-9.657-11.122-21.063-21.792-42.091-43.186-63.303-65.129-20.488-20.262-33.176-48.375-33.176-79.451s12.688-59.189 33.166-79.441c12.262-12.993 24.696-25.793 36.582-38.227 19.129-19.681 45.853-31.893 75.429-31.893s56.3 12.212 75.405 31.868c22.515 22.333 44.458 45.373 66.584 68.048 4.73 7.707 13.111 12.77 22.674 12.77 2.874 0 5.642-0.457 8.234-1.303 6.31-4.942 10.457-12.717 10.457-21.461 0-4.495-1.096-8.735-3.035-12.465 4.698 9.518-4.469-21.077-18.839-48.518-20.039-35.263-41.616-73.298-64.29-109.32-26.735-41.843-72.942-69.187-125.535-69.187-1.574 0-3.143 0.024-4.705 0.073z" />
<glyph unicode="&#x33;" glyph-name="caret_right" d="M451.2 180.8l204.8 204.8c14.4 14.4 32 32 32 62.4s-17.6 49.6-32 62.4l-204.8 204.8c-27.2 27.2-67.2 27.2-94.4 0s-27.2-67.2 0-94.4l172.8-172.8-172.8-172.8c-27.2-27.2-27.2-67.2 0-94.4s67.2-27.2 94.4 0z" />
<glyph unicode="&#x37;" glyph-name="upfront" d="M810 604l-18 234-122 82-112 12-180-166 228-24zM16 380l176-86 26 322-198-182zM1012 380l-496-244 210-104 302 148zM984 706l-192 132 42-546 178 88zM316 960l-274-254-22-272 538 498zM0 180l514-248 212 100-710 348z" />
<glyph unicode="&#x39;" glyph-name="logo" d="M1004 290v670l-108-84v-586c0-34-24-62-54-62-32 0-56 28-56 62v312c0 100-74 182-164 182s-162-82-162-182v-312c0-34-26-62-56-62s-54 28-54 62v312c0 100-74 182-164 182s-164-82-164-182v0-670l108 84v586c0 34 26 62 56 62s56-28 56-62l-2-312c0-100 74-182 164-182s164 82 164 182v0 312c0 34 24 62 54 62 32 0 56-28 56-62v-312c0-100 72-182 164-182 90 0 162 82 162 182z" />
<glyph unicode="&#x3d;" glyph-name="speach_alt" d="M558 182c-42-14-86-22-134-22-26 0-50 2-76 8-22-20-74-52-150-58-2-2-2-2-4-2-6 0-14 4-4 8 22 14 62 40 62 80-120 52-202 156-202 276 0 174 168 314 374 314 156 0 290-80 346-194 22-2 42-8 60-14-52 148-214 258-406 258-234 0-424-164-424-364 0-120 70-232 186-298-6-6-14-10-22-14-28-16-32-42-28-60 6-20 24-42 58-42 2 0 6 2 8 2 74 6 128 32 160 54 20-2 42-4 62-4 70 0 134 16 192 40-22 8-42 18-58 32zM732 570c138 0 248-94 248-208 0-82-54-152-134-186 10-28 40-50 58-60 10-4 2-8-4-8-2 0-2 0-4 2-62 4-108 26-134 46-10-2-20-2-30-2-138 0-250 92-250 208 0 114 112 208 250 208zM732 620c-166 0-300-116-300-258s134-258 300-258c4 0 10 0 18 0 32-20 80-40 142-44 2 0 4-2 8-2 34 0 52 22 58 42 4 18 0 44-30 60-2 2-2 2-4 4 66 48 106 120 106 198 0 142-134 258-298 258z" />
<glyph unicode="&#x41;" glyph-name="comment" horiz-adv-x="1048" d="M0 769.427c0.213 105.296 85.621 190.573 190.947 190.573 0.066 0 0.132 0 0.198 0h666.058c0.056 0 0.122 0 0.188 0 105.325 0 190.734-85.277 190.947-190.552v-492.364c0-105.354-85.406-190.76-190.76-190.76h-38.938l-60.279-149.762-146.018 149.762h-421.955c-105.17 0.107-190.385 85.388-190.385 190.572 0 0.066 0 0.132 0 0.198v492.333z" />
<glyph unicode="&#x42;" glyph-name="download" horiz-adv-x="1365" d="M1050.836-64h-749.992c-0.424-0.002-0.925-0.003-1.426-0.003-15.013 0-29.805 0.942-44.322 2.77-117.762 14.242-218.304 105.483-247.147 224.715-3.005 14.041-5.359 25.576-7.949 36.169v69.208c-0.121-0.517 1.417 1.772 2.319 4.359 11.525 110.342 91.606 206.428 199.228 241.984 7.938 1.803 12.284 6.922 12.284 13.057 0 1.006-0.117 1.986-0.338 2.925 0.011 0.63 0.007 1.476 0.007 2.323 0 163.941 132.901 296.842 296.842 296.842 20.495 0 40.506-2.077 59.832-6.032-0.203-0.254 1.768-0.59 3.817-0.59 6.46 0 12.14 3.336 15.413 8.378 26.059 43.611 96.992 96.055 180.393 117.272-11.657-2.522 15.599 5.389 44.039 9.689 10.816 1.059 21.262 1.533 31.817 1.533 18.246 0 36.161-1.416 53.642-4.144 69.441-4.088 148.797-45.322 204.691-107.946 55.785-58.363 89.947-137.21 89.947-224.035 0-13.662-0.846-27.126-2.488-40.343-0.163 0.309-0.348-1.151-0.348-2.653 0-6.791 3.784-12.699 9.359-15.729 68.861-34.597 134.23-117.504 155.763-216.754-1.424 7.797 3.362-11.618 5.916-31.73 1.696-13.937 2.586-28.537 2.586-43.344s-0.889-29.407-2.618-43.748c-15.395-134.38-118.284-249.368-253.362-283.546-10.044-3.904-33.128-8.976-57.16-10.586zM780.359 642.207h-146.42c-12.397-1.14-22.314-11.010-23.532-23.433l-0.009-194.314c-0.974-12.508-10.94-22.506-23.448-23.534l-99.432-0.006c-14.36 0-48.493 0 0-48.728l195.149-196.326c6.226-6.256 14.843-10.128 24.364-10.128s18.139 3.872 24.363 10.127l195.15 194.914c49.199 49.199 11.535 48.728 0 48.728h-97.692c-13.001 0-23.54 10.539-23.54 23.54v195.384c-0.63 13.496-11.616 24.24-25.165 24.482z" />
<glyph unicode="&#x43;" glyph-name="pos_header" d="M0 511.81c0-35.241 28.456-63.81 64.056-63.81h895.888c35.377 0 64.056 28.994 64.056 63.81v384.38c0 35.241-28.456 63.81-64.056 63.81h-895.888c-35.377 0-64.056-28.994-64.056-63.81v-384.38zM0 224c0-17.673 14.476-32 31.769-32h960.462c17.546 0 31.769 14.844 31.769 32 0 17.673-14.476 32-31.769 32h-960.462c-17.546 0-31.769-14.844-31.769-32zM0 96c0-17.673 14.476-32 31.769-32h960.462c17.546 0 31.769 14.844 31.769 32 0 17.673-14.476 32-31.769 32h-960.462c-17.546 0-31.769-14.844-31.769-32zM0-32c0-17.673 14.476-32 31.769-32h960.462c17.546 0 31.769 14.844 31.769 32 0 17.673-14.476 32-31.769 32h-960.462c-17.546 0-31.769-14.844-31.769-32zM0 352c0-17.673 14.476-32 31.769-32h960.462c17.546 0 31.769 14.844 31.769 32 0 17.673-14.476 32-31.769 32h-960.462c-17.546 0-31.769-14.844-31.769-32z" />
<glyph unicode="&#x44;" glyph-name="defender" horiz-adv-x="931" d="M836.149 613.429c7.483 36.21-2.216-28.877-18.984-91.063 12.733 9.516-27.719-112.534-90.884-219.586 21.638 1.365-83.817-143.882-221.683-248.702l-22.964-17.090c-4.412-2.891-9.818-4.611-15.625-4.611s-11.213 1.72-15.735 4.679l-2.538 0.815-19.421 14.654c-2.618-20.020-135.11 100.592-223.789 250.229-6.611 11.597-11.025 19.365-15.262 27.134 60.454-104.853 3.792-19.941-35.933 73.884-43.388 102.226-67.491 215.092-67.526 333.584 0 1.073 0 2.132 0 3.015 0 8.828 0 17.655 0 26.306-0.023 0.422-0.037 0.916-0.037 1.412s0.013 0.991 0.040 1.481c-0.066 0.646-0.102 1.476-0.102 2.315s0.036 1.67 0.106 2.49c0.831 7.653 6.206 15.435 13.802 19.771-1.342-0.6 1.387 0.991 4.392 1.97l0.16 0.045c8.651 3.884 17.655 7.768 25.953 11.299-68.26-26.429 17.317 13.015 109.005 37.494 71.809 19.158 147.446 29.39 225.473 29.39s153.664-10.232 225.643-29.427c-63.3 19.62 30.059-3.042 116.233-39.39q8.491-3.717 22.439-10.249c9.004-4.137 15.58-13.234 16.239-23.931l0.004-0.081c0-10.063 0-20.127 0-30.19 0-1.059 0-2.119 0-3.178 0.001-0.449 0.001-0.98 0.001-1.511 0-43.386-3.274-86.007-9.588-127.63zM732.866 515.266h-2.648l-5.297-0.883c14.98 20.528-234.445-43.985-461.092-149.267l12.474 5.2-3.178-1.412-6.532-3.001c-12.357-7.588-20.477-21.030-20.48-36.369-0.008-0.316-0.013-0.688-0.013-1.061 0-8.020 2.237-15.517 6.122-21.901l-0.105 0.187c-28.723 16.918 67.487-115.537 192.366-212.951l5.196-4.031c-2.892 1.681 0.951-0.982 5.257-2.746 3.281-1.292 6.831-1.996 10.545-1.996s7.264 0.704 10.524 1.985c-2.767-1.345 1.597 0.349 5.4 2.832l3.232 2.573c-2.954-22.686 121.104 90.887 204.65 231.368-27.53-56.203 30.813 39.564 67.65 145.403 1.709 7.759 3.121 9.701 3.827 11.82v0c0.086 0.873 0.135 1.887 0.135 2.913s-0.049 2.040-0.144 3.041c-0.085 15.408-12.554 28.001-28.034 28.297zM787.597 764.028c1.65-0.612-4.461 4.267-11.547 7.308 69.21-26.78-10.842 9.765-96.458 32.707-68.289 18.189-140.156 27.892-214.29 27.892s-146.001-9.703-214.401-27.908c65.558 19.796-21.197-1.107-101.41-34.56 6.226 3.164-1.027-0.568-6.877-5.828-2.485-1.051-8.402-8.523-11.519-17.32-1.364-3.399-2.395-8.149-2.562-13.118l-0.002-2.718c0.178-93.262 18.101-188.172 50.737-275.925l0.639-1.085c4.879-9.2 14.396-15.36 25.352-15.36 0.025 0 0.050 0 0.076 0 2.876 0.001 5.68 0.453 8.313 1.289l7.22 3.301 15.007 5.297c12.421 23.546 252.262 113.836 508.637 154.443l11.131 1.453 7.062 0.883c16.607 3.504 30.083 17.498 32.981 35.059l0.034 2.37c2.806 17.151 5.717 52.069 6.346 87.545l0.010 0.731v3.531c-0.301 11.393-5.827 22.388-14.431 29.973zM928.839 804.988v0 3.884c-1.45 19.185-13.611 37.652-31.129 48.035l-8.595 3.871c-123.554 62.554-269.36 99.192-423.724 99.192s-300.171-36.639-429.198-101.694l-0.706-0.5c-17.981-9.809-31.053-29.183-32.476-51.721l-0.009-0.185c-2.295-22.422-3.001-45.55-3.001-68.502 0-0.347-0.001-0.758-0.001-1.168 0-132.824 27.602-259.201 77.382-373.708q15.309-34.37 35.789-72.859c0.214-48.775 134.179-221.365 308.837-337.68l13.546-8.714c8.615-4.561 18.832-7.239 29.674-7.239 0.057 0 0.115 0 0.172 0 0.27-0.004 0.6-0.007 0.93-0.007 10.76 0 20.893 2.681 29.769 7.412l9.545 6.19c170.176 91.26 341.8 313.48 402.374 578.038q10.227 46.955 15.7 88.974c4.833 36.003 7.592 77.623 7.592 119.887 0 0.245 0 0.491 0 0.736q-0.353 34.213-2.825 67.758z" />
<glyph unicode="&#x45;" glyph-name="error" horiz-adv-x="1142" d="M1133.686 32.886l-507.668 894.818c-10.931 19.443-31.427 32.362-54.942 32.362s-44.011-12.919-54.779-32.047l-507.831-895.133c-5.349-9.287-8.504-20.423-8.504-32.295s3.155-23.008 8.673-32.615c10.799-19.015 31.273-31.902 54.762-31.976h1015.346c23.439 0.050 43.924 12.919 54.778 31.984 5.512 9.599 8.667 20.734 8.667 32.607s-3.155 23.008-8.673 32.615zM571.077 60.455c-47.431 2.299-85.016 41.314-85.016 89.108s37.585 86.808 84.811 89.1c47.636-2.291 85.221-41.306 85.221-89.1s-37.585-86.808-84.811-89.1zM640.985 353.477c-1.182-27.372-31.311-48.443-71.089-48.443s-67.545 21.071-68.726 48.443c-6.105 98.462-19.692 275.692-19.692 294.006 0 36.037 39.385 64.197 90.388 64.197s86.843-28.16 86.843-64.197c0.591-17.526-11.422-196.135-17.526-293.809z" />
<glyph unicode="&#x46;" glyph-name="facebook" horiz-adv-x="495" d="M109.909-64v512h-109.909v176.469h109.739v105.984c0.171 144.213 62.123 229.547 238.251 229.547h146.603v-176.469h-91.648c-68.267 0-73.216-24.747-73.216-70.656v-88.235h166.059l-19.627-176.64h-146.603v-512h-219.648z" />
<glyph unicode="&#x47;" glyph-name="wordpress" d="M510.72-64c-282.192 0.764-510.657 229.701-510.657 511.998 0 282.77 229.23 512 512 512s512-229.23 512-512c0-2.828-0.023-5.651-0.069-8.469-3.807-278.716-230.984-503.536-510.67-503.536-0.916 0-1.831 0.002-2.746 0.007zM801.829 773.669c-192 178.103-514.011 136.594-652.069-83.383 1.457-0.351 5.118-0.794 8.862-0.912l128.098 4.569c1.526 0.428 3.279 0.673 5.089 0.673 9.947 0 18.161-7.423 19.403-17.033 0.021-0.347 0.027-0.638 0.027-0.931 0-11.21-9.087-20.297-20.297-20.297-0.714 0-1.42 0.037-2.116 0.109-13.81-1.653-27.89-2.75-43.616-4.213l157.074-469.76c2.56 6.766 4.023 10.606 5.303 14.629 28.343 85.029 56.686 170.24 85.211 256 1.679 4.231 2.652 9.133 2.652 14.263s-0.973 10.032-2.745 14.532c-18.192 48.005-36.478 96.097-52.752 144.919-6.583 19.749-14.811 31.451-36.571 28.526-0.546-0.016-1.189-0.025-1.834-0.025-5.843 0-11.513 0.743-16.92 2.139-8.938 0.769-16.246 8.623-16.246 18.183 0 10.14 8.22 18.36 18.36 18.36 0.579 0 1.153-0.027 1.718-0.079 14.007 0.005 28.27-1.457 42.35-2.555 22.64-1.451 49.092-2.278 75.736-2.278 38.096 0 75.797 1.69 113.032 5-3.065 0.267-1.049 0.621 1.050 0.621 9.86 0 17.897-7.804 18.272-17.572 0.040-0.495 0.062-1.031 0.062-1.572 0-10.705-8.678-19.383-19.383-19.383-0.601 0-1.195 0.027-1.782 0.081-14.37-1.651-28.816-2.931-44.542-4.577l156.16-464.457c-2.265-4.5 0.24-0.213 1.921 4.467 22.399 75.076 45.439 149.864 66.833 224.836 5.267 17.232 8.3 37.039 8.3 57.555 0 37.519-10.143 72.669-27.837 102.857-7.891 14.4-17.765 28.845-25.994 44.571 3.982-11.641-12.885 20.218-22.608 55.057-1.764 7.159-2.529 13.298-2.529 19.616 0 39.446 29.81 71.93 68.131 76.153-2.341-0.849 2.341 0.302 6.655 2.147zM655.726 36.023l-134.766 367.177h-2.926l-128.914-374.674c36.697-11.121 78.871-17.524 122.541-17.524 51.481 0 100.884 8.898 146.754 25.239zM318.72 56.686l-206.629 566.857c-23.247-51.636-36.791-111.934-36.791-175.395 0-170.748 98.044-318.596 240.906-390.319zM899.291 649.143c0-6.217 0-9.143 0-12.069 0.474-7.029 0.745-15.236 0.745-23.506 0-43.384-7.439-85.030-21.111-123.733q-54.057-156.852-108.914-316.12l-34.743-100.571c197.303 111.726 272.823 371.383 164.571 575.817z" />
<glyph unicode="&#x48;" glyph-name="hummingbird" d="M757.583 604.072c11.477 11.477 18.575 27.331 18.575 44.844 0 35.025-28.394 63.419-63.419 63.419-17.513 0-33.368-7.098-44.844-18.575-10.923-11.137-17.664-26.409-17.664-43.255 0-0.372 0.003-0.744 0.010-1.115-0.009-0.316-0.013-0.754-0.013-1.193 0-34.42 27.903-62.323 62.323-62.323 0.439 0 0.877 0.005 1.314 0.014-0.064-0.001-0.062-0.001-0.061-0.001 17.106 0 32.589 6.951 43.778 18.183zM623.051 559.228c-22.791 22.051-36.94 52.915-36.94 87.082 0 1.103 0.015 2.202 0.044 3.297-0.060 1.246-0.092 2.898-0.092 4.558 0 69.717 56.517 126.234 126.234 126.234s126.234-56.517 126.234-126.234c0-1.66-0.032-3.312-0.096-4.957 0.068-1.193 0.102-2.87 0.102-4.555 0-33.365-13.531-63.569-35.405-85.426-22.405-21.845-53.059-35.319-86.861-35.319-0.498 0-0.995 0.003-1.491 0.009-1.977-0.127-4.375-0.198-6.791-0.198-33.231 0-63.289 13.581-84.928 35.496zM784.772 183.172c0 0.098 0 0.214 0 0.33 0 28.728-2.182 56.946-6.39 84.498q-6.674 51.469 6.39 64.711c-104.163-104.549 12.74-3.697 101.875 118.677-55.039-80.477 21.701 15.244 74.999 124.498-5.498-21.297 27.966 51.503 46.666 130.027 10.199 43.067 15.641 88.167 15.687 134.53q0 74.712-23.834 97.664t-95.868 21.892c-46.070-0.004-91.085-5.603-134.153-16.159 28.939 12.216-54.196-10.331-129.672-46.343 77.853 41.806-31.522-6.241-125.255-74.477 118.509 87.564-12.674 5.057-119.168-102.027q-12.226-12.226-68.722-6.047t-80.154 6.003c-3.046 0.29-6.585 0.455-10.163 0.455-25.805 0-49.602-8.597-68.684-23.082q-27.084-23.276-41.384-37.224c27.28 35.625-31.619-25.214-72.705-97.5q-36.581-63.162-46.115-81.877c-4.572-7.318-7.283-16.205-7.283-25.726 0-13.972 5.838-26.58 15.208-35.519 10.411-14.901 29.204-26.422 50.759-28.422l107.274-0.021q54.731 0 72.386 0c0.62-55.862 25.696-107.667 65.339-143.745 34.953-38.736 86.445-64.019 143.857-65.113q1.077-17.658 0.194-72.389t0-106.99c0.871-20.401 11.99-40.168 28.77-52.832 8.854-9.49 21.208-15.327 34.926-15.327 9.675 0 18.672 2.904 26.166 7.888l78.745 45.441c-29.723-23.258 42.571 18.267 100.585 74.45q13.821 13.826 37.302 41.014c14.292 18.785 22.897 42.572 22.897 68.369 0 3.652-0.172 7.264-0.51 10.828zM378.703 145.743q-50.494 0-111.228 60.734t-60.734 111.228q0.883 27.012-17.655 28.072c-0.688 0.041-1.493 0.064-2.303 0.064-11.959 0-22.741-5.038-30.339-13.107l-105.951-105.952c-7.15-6.829-11.595-16.437-11.595-27.084 0-1.655 0.107-3.285 0.316-4.884q1.922-18.526 28.052-20.292h69.208q-10.593-26.659-24.541-58.968t-27.189-60.557c-3.134-4.806-4.999-10.688-4.999-17.006 0-6.87 2.204-13.225 5.945-18.397 4.631-3.246 10.481-5.244 16.797-5.244s12.166 1.998 16.951 5.397q24.274 11.062 61.526 26.951l59.851 25.247q0-13.065 0-27.542t0-41.49c-0.233-1.233-0.367-2.652-0.367-4.102 0-11.657 8.624-21.3 19.841-22.896 2.129-0.405 4.435-0.628 6.794-0.628 10.166 0 19.363 4.151 25.988 10.851l104.875 104.875c6.815 8.468 10.939 19.352 10.939 31.2 0 1.447-0.061 2.879-0.182 4.295q-1.4 19.060-29.471 19.060z" />
<glyph unicode="&#x49;" glyph-name="twitter" horiz-adv-x="1311" d="M1310.792 838.865c-14.89-10.709-81.418-32.19-151.988-40.433 39.699 16.967 91.224 72.488 115.047 140.977-5.215-8.61-82.434-44.54-166.562-61.314-53.177 49.795-122.171 81.005-198.455 81.005-0.51 0-1.019-0.001-1.529-0.004-1.417 0.031-3.181 0.048-4.948 0.048-143.894 0-260.897-115.137-263.907-258.31-0.005-0.394-0.005-0.528-0.005-0.663 0-20.801 2.555-41.005 7.367-60.315-213.432 6.91-416.518 110.697-554.535 271.859-23.725-35.825-37.265-80.55-37.265-128.437 0-0.162 0-0.324 0-0.486 0.318-89.914 47.503-169.25 118.519-214.509-40.056-0.282-83.88 11.67-122.242 32.426s1.463-2.758 1.463-3.888c1.807-126.237 93.452-231.003 213.999-253.1-19.642-6.049-44.035-9.384-69.208-9.384-17.872 0-35.351 1.681-52.289 4.894 39.032-104.987 137.304-178.977 252.959-179.717-91.27-69.137-206.805-110.743-332.057-110.743-0.661 0-1.321 0.001-1.981 0.003-21.669 0.002-43.945 1.315-65.843 3.869 119.49-73.177 261.363-116.418 413.335-116.418 0.546 0 1.091 0.001 1.636 0.002 494.626 0 765.147 393.916 765.147 735.4q0 16.724 0 33.448c-10.131-19.157 72.941 47.501 132.196 132.070z" />
<glyph unicode="&#x4a;" glyph-name="github" horiz-adv-x="1058" d="M692.495 215.53c63.126 15.876 116.235 46.872 145.341 107.73 18.195 36.716 28.841 79.951 28.841 125.673 0 26.693-3.629 52.539-10.419 77.070 1.36 8.143-14.763 42.914-38.675 70.812-2.053 2.82-3.417 6.692-3.417 10.883 0 1.408 0.154 2.78 0.446 4.1 4.58 15.767 7.227 34.023 7.227 52.897 0 24.881-4.601 48.687-12.998 70.614-0.751 4.264-5.676 8.414-11.569 8.414-0.625 0-1.24-0.047-1.84-0.137-22.795-0.222-48.918-7.221-71.926-19.338-17.97-8.815-36.87-20.344-55.77-30.361-3.497-1.961-7.675-3.117-12.123-3.117-1.324 0-2.625 0.102-3.894 0.3-37.228 9.592-80.127 15.108-124.315 15.108s-87.087-5.516-128.047-15.898c2.499 0.603 1.24 0.507-0.042 0.507-4.959 0-9.583 1.436-13.479 3.916-6.299 9.525-54.471 35.184-107.814 47.174l-8.319 1.338c-18.9 2.079-20.412 1.701-26.46-17.577-6.368-18.236-10.046-39.259-10.046-61.14 0-19.234 2.842-37.804 8.129-55.314-0.014 0.17 0.18-1.189 0.18-2.593 0-3.031-0.903-5.852-2.455-8.206-47.593-55.132-56.665-119.959-46.081-188.944-2.207-0.821 5.952-38.105 19.692-72.558 26.046-66.924 81.045-103.59 150.408-121.545 21.357-5.481 43.281-8.883 66.339-13.608-12.638-11.215-26.514-36.191-31.088-64.29-1.070-3.438-4.041-6.294-7.755-7.504-56.791-21.761-111.412-12.122-145.999 45.145-10.683 23.925-37.497 46.215-69.98 53.542-4.020 0.649-7.843 0.943-11.734 0.943-5.736 0-11.323-0.639-16.694-1.849-7.811-1.416-9.134-7.842-3.842-14.079-2.725 1.877 4.644-6.466 13.756-12.335 19.054-7.885 45.767-36.705 59.057-72.092 17.056-43.824 58.023-73.933 106.097-74.521 4.852-0.123 10.481-0.193 16.125-0.193 20.964 0 41.704 0.962 62.177 2.844-2.629-32.514-2.629-66.534-2.629-100.365 0-17.199-18.9-25.137-39.123-18.9 7.828-9.482-65.118 19.649-127.215 63.198-158.175 112.005-238.689 266.229-230.562 461.276 11.099 242.804 190.67 443.514 425.429 487.122 34.55 7.142 70.546 10.946 107.43 10.946 289.868 0 524.852-234.984 524.852-524.852 0-229.409-147.183-424.441-352.272-495.818-29.388-9.621-44.886 1.152-44.886 27.99q0 65.961 0 132.3c0.271 3.25 0.426 7.035 0.426 10.856 0 35.003-12.981 66.973-34.392 91.36 23.382 4.379 44.928 7.781 65.907 13.073z" />
<glyph unicode="&#x4b;" glyph-name="stackoverflow" horiz-adv-x="807" d="M750.421 580.096l-232.448 328.704 69.973 51.2c6.315-7.68 12.629-14.336 17.067-21.675 64.171-95.573 127.488-191.488 192.341-286.379 12.288-17.92 14.165-29.696-6.315-41.643 76.886 48.048 12.89 14.204-41.447-30.876zM734.72 562.176l-52.736-59.221-304.299 277.163 60.075 64.171zM270.677 614.912l34.133 63.317c9.899 17.067 21.333 6.656 31.403 0.853q140.459-80.555 280.576-161.621c59.051-34.133 59.904-41.813 11.776-97.792zM620.203 389.803c-2.56-10.581-3.072-13.312-3.925-16.213-17.067-60.587-5.461-54.784-64.683-38.059-106.667 30.208-213.333 61.269-320.341 90.112-25.088 6.827-29.525 17.067-20.992 40.448 25.429 70.656 11.947 59.221 74.923 39.765 103.253-31.744 205.995-65.365 308.736-99.157-5.62 4.303 11.983-4.578 26.432-17.021zM595.285 268.288c-1.877-49.323-2.731-51.2-48.469-46.421-117.077 11.264-233.984 23.381-351.061 34.133-21.333 2.048-27.136 9.899-23.211 31.915 10.923 63.659 9.728 62.635 75.264 53.589q158.891-22.016 318.293-40.277c25.259-2.56 35.328-11.435 29.355-32.939zM378.027 194.219c59.904 0 119.467 0 179.712 0 22.869 0 33.109-5.291 32.256-30.549-2.389-72.704 9.899-63.317-62.805-63.659-108.203 0-216.405 0-324.267 0-27.136-0.512-38.229 6.656-38.229 35.157 1.877 70.827-2.731 58.027 59.221 58.88 51.712 0.683 102.912 0.171 154.112 0.171zM91.136 29.525h576.512v38.741c0 87.040 0 173.909 0 260.949 0 23.040 6.997 30.208 29.696 29.525 73.387-2.219 60.587 8.875 61.099-61.44 0-110.080 0-220.331 0-330.411 0-24.576-8.021-30.891-31.573-30.72q-347.819 1.024-695.808 0c-24.064 0-31.403 7.168-31.232 31.232 1.024 119.467 1.195 238.933 0 359.424 0 26.283 8.533 32.597 33.28 32.256 57.856-1.195 57.856 0 57.856-59.051v-270.507z" />
<glyph unicode="&#x4c;" glyph-name="linkedin" horiz-adv-x="1096" d="M378.839-64h234.818v380.6c-0.115 2.18-0.181 4.732-0.181 7.299 0 17.148 2.933 33.61 8.325 48.913 18.477 47.756 64.975 81.744 119.411 81.744 0.217 0 0.434-0.001 0.65-0.002 85.088 0 118.941-62.422 118.941-154.001v-364.554h235.013v391.363c0 209.379-115.843 306.633-270.431 306.633-3.397 0.176-7.375 0.276-11.377 0.276-85.454 0-160.246-45.646-201.324-113.886l0.974-1.058v97.841h-234.818c3.131-63.596 0-681.166 0-681.166zM131.302 696.613c1.841-0.096 3.997-0.15 6.166-0.15 70.031 0 126.801 56.771 126.801 126.801 0 1.773-0.036 3.538-0.108 5.293-1.362 74.499-50.869 131.442-131.294 131.442-1.841 0.096-3.997 0.15-6.166 0.15-70.031 0-126.801-56.771-126.801-126.801 0-1.773 0.036-3.538 0.108-5.293-0.091-1.46-0.139-3.466-0.139-5.482 0-69.598 56.421-126.019 126.019-126.019 1.353 0 2.702 0.021 4.045 0.064l1.369-0.005zM248.711-64v681.166h-234.818v-681.166h234.818z" />
<glyph unicode="&#x4d;" glyph-name="medium" horiz-adv-x="1293" d="M0 809.32v151.349h484.806v-1.783l17.832-65.087 109.667-407.906q15.603-58.177 31.206-116.354c0-2.452 2.006-3.566 4.235-2.675 0.899 0.591 1.747 1.849 2.001 3.312l111.454 414.179 48.146 176.313h483.469v-151.572h-4.235c-14.934 0-29.646 0-44.58 0-4.902-0.022-10.177-1.17-14.975-3.221-4.709-0.532-16.911-9.762-25.001-21.956-5.298-7.041-8.399-15.65-8.399-24.983 0-0.233 0.002-0.465 0.006-0.697q0-313.139 0-626.535c-0.011-0.319-0.017-0.695-0.017-1.071 0-8.082 2.868-15.495 7.641-21.275-7.498 8.847 0.66-2.521 10.991-11.442 8.277-7.432 19.135-11.92 31.042-11.92 0.409 0 0.817 0.005 1.224 0.016 13.983-0.001 28.025-0.001 41.845-0.001h4.458v-3.566q0-73.111 0-146.445h-462.739c-0.034 0.533-0.053 1.156-0.053 1.783s0.019 1.25 0.057 1.868q-0.004 71.912-0.004 143.685c0 1.114 0 2.229 0 3.789h96.515v668.698c-3.566 1.337-4.904 0-5.795-3.343q-29.2-103.871-57.285-207.296l-161.379-583.997c-2.229-8.47-4.458-16.717-6.687-25.188h-175.199s0 2.229-1.114 3.343l-60.852 222.899-160.488 588.677c-1.337 4.904-1.337 4.904-6.687 4.012v-668.698h96.738v-4.458q0-73.111 0-146.445h-387.845v152.017h49.707c0.97-0.123 2.093-0.193 3.232-0.193s2.262 0.070 3.364 0.206c11.449 1.849 25.89 12 34.716 26.038 3.75 4.782 6.060 10.819 6.165 17.391q0 316.541 0 633.281c-0.021 3.62-0.924 7.669-2.528 11.342 0.243 2.833-7.367 14.032-17.619 21.991-8.527 7.722-19.721 12.387-32.005 12.387-0.551 0-1.099-0.009-1.645-0.028-14.409 0.002-28.675 0.002-43.163 0.002z" />
<glyph unicode="&#x4e;" glyph-name="minify" d="M244.524 72.828c3.553 5.798-0.865-3.084-6.972-10.526-35.223-35.201-68.945-69.452-103.726-103.703-14.1-13.997-33.525-22.647-54.969-22.647-11.348 0-22.131 2.422-31.859 6.778-27.618 12.237-46.878 39.882-46.878 72.026 0 22.325 9.291 42.48 24.217 56.81l101.544 101.366c-16.571-15.614-4.263-2.16 10.381 8.213-4.202 5.204-7.027 8.559-10.205 11.56l-89.335 89.512c-0.261-0.319-3.339 2.282-5.427 5.573-2.997 5.565-4.731 12.087-4.731 19.013 0 0.978 0.035 1.948 0.103 2.909 4.057 4.921 10.436 8.32 17.615 8.521 43.288 0.001 86.543 0.001 129.798 0.001h179.023c1.53 0.095 3.319 0.149 5.12 0.149s3.59-0.054 5.364-0.16c-0.168 0.013-0.077 0.014 0.013 0.014 9.751 0 17.655-7.904 17.655-17.655 0-1.061-0.094-2.1-0.273-3.11 0.016-29.907 0.016-59.921 0.016-89.758q0-112.11 0-224.221c0.66-1.778 1.041-3.831 1.041-5.974 0-7.121-4.216-13.258-10.289-16.050-2.023-0.657-4.224-1.009-6.508-1.009-7.33 0-13.812 3.632-17.744 9.194q-45.949 45.971-91.499 92.051c3.89-5.539-2.709 2.264-7.247 11.283zM886.113 185.997c5.826-6.179 8.121-9.004 10.77-11.652 35.31-35.31 69.385-69.032 103.636-104.166 14.141-14.205 22.884-33.795 22.884-55.426 0-36.978-25.546-67.989-59.952-76.347-6.248-1.654-12.806-2.541-19.57-2.541-21.704 0-41.275 9.129-55.085 23.756l-104.023 103.849-7.945 7.768-9.357-8.828-89.159-89.335c0.312-0.541-3.553-4.67-8.341-7.347-4.333-2.131-9.274-3.337-14.497-3.337-1.911 0-3.784 0.161-5.606 0.471-4.663 3.855-7.749 9.78-7.749 16.426 0 0.050 0 0.1 0.001 0.15 0 73.261 0 146.53 0 219.799 0 32.662 0 65.324 0 97.986-0.459 1.497-0.723 3.218-0.723 5.001 0 9.751 7.904 17.655 17.655 17.655 1.833 0 3.6-0.279 5.262-0.797l317.668 0.034c0.522 0.060 1.127 0.093 1.74 0.093 8.971 0 16.243-7.272 16.243-16.243 0-4.019-1.46-7.697-3.878-10.533 4.384 5.383-1.42-3.319-8.937-10.174q-44.716-44.711-89.56-89.202c3.812 2.402-3.136-3.205-11.14-6.922zM245.76 823.172l89.688 90.041c-6.447-6.153 4.178 6.713 17.378 16.229 5.098 3.007 10.891 4.67 17.072 4.67 1.423 0 2.826-0.088 4.203-0.259 8.486-1.396 8.31-10.4 8.31-17.638q0-157.837 0-315.498c0-18.538-4.943-23.128-24.011-23.128-104.342 0-208.861 0-313.203 0-6.749 0.104-13.125 3.133-17.643 7.932-1.432 2.499-2.269 5.477-2.269 8.651 0 5.661 2.665 10.7 6.808 13.931 15.399 15.743 31.112 31.279 46.649 46.816l57.026 57.909-9.181 9.71c-35.31 35.31-69.385 69.032-103.636 104.166-14.223 13.509-23.071 32.559-23.071 53.676 0 8.596 1.466 16.85 4.162 24.525 6.485 26.059 29.621 47.893 58.533 53.086 5.633 1.325 11.579 2.046 17.693 2.046 21.959 0 41.746-9.302 55.635-24.18l102.264-102.444c-11.027 12.493-0.547 2.233 7.359-9.861zM775.062 822.466c39.901 40.077 76.623 77.33 114.052 114.052 14.357 14.968 34.522 24.269 56.859 24.269 43.488 0 78.742-35.254 78.742-78.742 0-22.645-9.559-43.057-24.861-57.421-33.94-34.29-68.191-68.188-102.266-102.263-2.825-2.825-5.65-6.003-9.534-10.24l62.323-61.263c13.418-13.418 27.189-26.483 40.077-40.43 3.281-2.891 7.111-9.74 8.444-17.445 1.443-10.097-5.443-15.394-17.625-15.57h-312.32c-23.658 0-27.719 4.061-27.719 27.895q0 154.306 0 308.789c-0.413 1.424-0.651 3.059-0.651 4.749 0 6.691 3.722 12.513 9.21 15.508 2.175 0.813 4.58 1.256 7.088 1.256 6.687 0 12.638-3.151 16.45-8.049q45.938-45.421 91.312-91.147c-15.147 17.038-0.765 3.060 10.102-13.439z" />
<glyph unicode="&#x4f;" glyph-name="archive" horiz-adv-x="833" d="M382.025 265.41h-238.592c-1.362-0.048-2.963-0.075-4.569-0.075-76.722 0-138.918 62.196-138.918 138.918 0 1.37 0.020 2.735 0.059 4.095q-0.005 206.441-0.005 412.734c0 76.722 62.196 138.918 138.918 138.918 161.666 0 324.026 0 486.213 0 0.971 0.025 2.113 0.040 3.26 0.040 56.17 0 104.23-34.726 123.881-83.881 14.209-31.287-1.593-54.73-34.412-54.73h-503.578c-1.857 0.176-4.014 0.277-6.195 0.277-38.361 0-69.459-31.098-69.459-69.459 0-2.237 0.106-4.45 0.313-6.633q-0.021-131.52-0.021-263.318c0-50.705 27.784-77.968 78.662-77.968h501.321c1.458 0.217 3.141 0.341 4.852 0.341 19.181 0 34.73-15.549 34.73-34.73 0-6.532-1.803-12.643-4.94-17.862-21.008-51.071-70.552-86.546-128.396-86.667h-243.122zM451.484 213.315h208.377v-121.553c25.7 0 15.802 0 40.634 0 2.535 0.441 5.797 2.794 7.78 6.017 12.82 17.355 33.139 28.447 56.049 28.447 38.361 0 69.459-31.098 69.459-69.459 0-2.169-0.099-4.314-0.294-6.432-2.734-30.281-26.005-55.449-56.157-61.132-4.598-1.004-9.383-1.54-14.293-1.54-22.154 0-41.758 10.918-53.726 27.666-2.948 4.367-7.652 7.070-12.987 7.070-0.611 0-1.215-0.036-1.807-0.105-22.676 0.007-10.694 0.007-33.268 0.007 0-29.867-28.826-86.824-105.578-86.824-1.14-0.046-2.478-0.072-3.822-0.072-50.887 0-93.019 37.48-100.298 86.34-24.726 0.555-14.828 0.555-39.833 0.555-2.535-0.441-5.797-2.794-7.78-6.017-12.746-18.188-33.546-29.892-57.081-29.892-38.361 0-69.459 31.098-69.459 69.459 0 2.741 0.159 5.444 0.468 8.102 2.724 30.229 25.995 55.398 56.147 61.080 4.598 1.004 9.383 1.54 14.293 1.54 22.154 0 41.758-10.918 53.726-27.666 2.935-4.459 7.69-7.232 13.094-7.232 0.574 0 1.14 0.031 1.698 0.092 22.679-0.006 10.697-0.006 34.661-0.006v121.553zM664.376 601.070l-217.58 80.746v80.92l217.58-80.92v-80.746zM664.376 739.815l-217.58 80.92h217.58v-80.92zM664.376 462.326l-217.58 80.746v80.746l217.58-80.746v-80.746zM446.795 404.328v80.746l217.58-80.746h-217.58z" />
<glyph unicode="&#x50;" glyph-name="pencil" d="M1005.714 835.657l-105.874 106.057c-11.205 10.989-26.57 17.772-43.52 17.772s-32.315-6.783-43.53-17.782l-90.139-89.773c-5.001-4.942-8.098-11.801-8.098-19.383s3.097-14.441 8.095-19.38l155.066-154.883c4.933-4.946 11.755-8.006 19.291-8.006s14.358 3.060 19.291 8.005l89.418 90.332c11.28 10.805 18.29 25.989 18.29 42.81 0 0.25-0.002 0.499-0.005 0.748 0.003 0.173 0.005 0.423 0.005 0.672 0 16.821-7.010 32.005-18.269 42.79zM85.577 195.657l-6.4-4.754-1.646-4.754-75.703-219.429-1.829-5.669c-0.513-1.557-0.809-3.35-0.809-5.211s0.296-3.654 0.843-5.333c-0.303-0.398 1.78-4.222 4.722-7.195 1.212-2.436 4.596-5.222 8.667-6.372 1.411-0.533 2.92-0.826 4.497-0.826s3.085 0.294 4.474 0.829l4.669 3.263 219.429 74.24 6.4 3.291 4.754 4.754c3.012 4.003 4.823 9.059 4.823 14.537s-1.811 10.534-4.868 14.6l-146.241 146.223c-3.377 2.079-7.47 3.311-11.849 3.311-0.334 0-0.667-0.007-0.998-0.021-0.021 0.003-0.101 0.003-0.181 0.003-4.96 0-9.371-2.351-12.18-6zM141.897 232.229l154.697-154.88c4.341-4.569 10.461-7.411 17.245-7.411 0.753 0 1.497 0.035 2.232 0.103 8.182 0.993 15.802 6.995 19.227 15.186l508.222 505.218c4.805 1.237 8.299 5.531 8.299 10.641 0 0.83-0.092 1.638-0.267 2.415 0.044 0.358 0.062 0.86 0.062 1.367 0 6.796-3.142 12.858-8.052 16.813l-154.739 154.912c-4.933 4.946-11.755 8.006-19.291 8.006s-14.358-3.060-19.291-8.005l-507.612-505.783c-4.946-4.933-8.006-11.755-8.006-19.291s3.060-14.358 8.005-19.291z" />
<glyph unicode="&#x51;" glyph-name="quora" horiz-adv-x="911" d="M695.79 106.019c3.596-15.101 23.817-39.586 50.242-54.246-40.601 22.728 2.827-5.557 50.912-24.625 9.205-2.488 13.998-8.286 13.998-15.204 0-0.382-0.015-0.761-0.043-1.136 0.003-17.605 0.003-35.261 0.003-52.916 0.257-1.013 0.404-2.177 0.404-3.375 0-7.898-6.403-14.301-14.301-14.301-0.266 0-0.531 0.007-0.794 0.022-59.108-9.182-115.605-5.828-166.805 29.129-7.085-0.7-40.335 30.641-61.431 69.534-3.148 6.217-8.387 9.67-14.433 9.67-1.336 0-2.632-0.169-3.869-0.486 2.529-0.954-45.655-7.205-94.816-9.766-3.969-0.12-5.873-0.132-7.78-0.132-94.629 0-182.061 30.815-252.809 82.957-85.845 51.128-164.078 162.048-186.131 292.088-5.712 28.702-8.77 58.662-8.77 89.337 0 116.169 43.862 222.094 115.928 302.117 45.578 64.244 143.675 127.546 256.753 147.171 27.893 5.565 56.97 8.538 86.741 8.538 104.131 0 199.769-36.366 274.906-97.090 75.283-48.643 146.935-154.036 168.449-276.688 5.832-29.094 8.949-59.458 8.949-90.549 0-103.708-34.672-199.318-93.057-275.871 16.652 8.453-41.705-60.467-114.896-108.714l-7.526-5.466zM629.407 245.495c1.236 1.766 4.237 5.473 7.062 9.534 33.173 48.522 52.973 108.474 52.973 173.049 0 0.735-0.003 1.469-0.008 2.203 0.319 11.927 0.501 26.1 0.501 40.317 0 51.28-2.361 102.009-6.982 152.083-3.832 61.431-43.719 131.186-103.212 176.534-33.71 26.441-75.921 42.117-121.793 42.117-51.63 0-98.622-19.858-133.754-52.353-59.034-54.74-96.017-132.976-96.090-219.851-1.412-44.858 0-89.878 0-134.722-0.011-0.992-0.017-2.164-0.017-3.337 0-42.177 8.042-82.475 22.677-119.446 31.895-82.723 109.754-169.41 226.985-158.817 10.417 0.883 20.657 3.708 33.368 6.003-26.659 40.96-57.732 69.385-103.283 79.095-4.557 1.173-8.784 5.253-10.387 10.481-0.912 24.477-0.030 49.017-0.030 73.382-0.027 0.266-0.043 0.574-0.043 0.886 0 5.070 4.11 9.181 9.181 9.181 0.64 0 1.265-0.065 1.868-0.19 4.087 0.251 8.936 0.389 13.818 0.389 42.722 0 82.986-10.523 118.342-29.118 29.503-15.928 57.751-37.291 89.001-57.771z" />
<glyph unicode="&#x52;" glyph-name="recycle" d="M0 240.022c3.708 17.655 6.532 35.31 11.299 51.377-7.126-8.74 11.71 43.949 40.441 89.805q27.355 46.14 55.426 93.985l5.12 9.357c-17.655 11.123-33.898 21.539-50.141 33.015 5.822-5.696-10.335 5.639-22.639 20.313-4.919 5.51-7.844 12.605-7.844 20.383 0 9.889 4.727 18.675 12.046 24.219-3.645-1.351 9.614 8.768 24.869 15.010 56.421 23.003 112.387 45.249 168.178 67.494-6.106-1.961 5.043 2.664 16.931 5.336 4.708 1.271 9.284 1.923 14.013 1.923 26.118 0 47.589-19.9 50.077-45.365 0.783-4.665 1.359-11.168 1.428-17.793 0.001-57.978 0.001-116.063 0.001-173.972-0.021-10.077-2.028-20.3-5.67-29.708-4.239-12.323-16.269-21.427-30.425-21.427-3.504 0-6.878 0.558-10.037 1.589 6.52-3.21-10.628 2.488-25.818 11.211-5.909 3.025-11.736 7.615-17.032 11.499l-19.068 12.359c8.284 9.307 1.068 2.312-4.432-5.926q-27.524-46.156-54.89-92.060c-6.004-6.006-17.172-30.182-21.757-56.615-1.298-6.087-1.965-11.997-1.965-18.063 0-36.533 24.174-67.419 57.399-77.535 13.393-5.084 32.907-9.050 53.262-9.677 47.947-1.243 95.616-0.007 143.991-0.007v-127.47c-2.295 0-4.767 0-7.415 0-47.669 0-95.338 0-143.007 0-1.38-0.024-3.009-0.037-4.641-0.037-53.195 0-103.050 14.302-145.929 39.269-40.348 21.217-73.7 67.505-80.455 122.039 0.117 0.52-0.434 3.603-1.382 6.506l0.065 38.965zM529.655 960c8.121-1.766 16.066-3.354 24.011-5.473 41.158-5.964 94.925-41.852 129.257-92.078 26.639-37.158 48.531-76.529 72.365-114.664 5.473-8.651 10.417-17.655 16.066-27.189 17.655 11.652 34.251 23.305 51.553 33.721-3.028-0.505 11.386 7.634 27.317 12.175 3.654 1.177 6.994 1.751 10.469 1.751 13.188 0 24.446-8.262 28.88-19.893 3.479-7.925 5.842-18.24 6.072-29.080 0.001-59.408 0.001-118.729 0.001-178.051-0.015-8.262-1.436-16.972-4.052-25.147-9.543-30.29-39.733-43.179-73.808-30.467-39.548 14.83-78.742 30.543-118.113 45.903-19.597 7.592-39.018 15.183-58.439 23.128-15.99 3.526-29.254 17.061-32.616 34.149-0.057 0.657-0.064 1.101-0.064 1.547 0 17.183 9.899 32.055 24.305 39.223 13.319 9.295 26.737 17.77 40.332 26.774 0.441-0.988-0.304 1.449-1.462 3.635-22.196 36.972-43.382 74.754-67.040 110.948 8.017-6.546-12.692 21.384-39.313 42.065-14.667 12.194-33.179 19.41-53.376 19.41s-38.71-7.216-53.099-19.211c25.271 24.464-12.142-5.895-40.479-43.481 19.652 25.731-1.942 1.266-17.598-26.949l-100.686 59.592c35.31 60.381 75.211 113.699 141.241 141.241-34.894-12.533 6.236 4.964 49.994 15.797l38.282 0.622zM735.868 160.044c7.004-0.482 15.18-0.756 23.42-0.756 23.683 0 46.837 2.267 69.257 6.596 54.391 15.17 80.344 60.543 61.453 116.334 19.88-44.969-1.019 13.112-31.86 64.551-4.156 8.188-10.689 17.899-16.515 29.022l97.633 58.439c0.396 0.012 1.445-0.414 2.31-1.070 30.175-50.13 62.661-99.035 76.255-157.297 4.796-15.802 7.557-33.964 7.557-52.77 0-36.685-10.506-70.915-28.672-99.848-15.944-29.748-59.158-63.651-110.656-76.957-28.747-8.77-62.15-14.028-96.75-14.243-17.768-0.001-34.011-0.001-53.078-0.001 0-17.655 0-33.015 0-49.258-0.026-8.341-1.711-17.96-4.778-26.939-3.703-11.521-14.901-20.166-28.118-20.166-3.391 0-6.65 0.569-9.685 1.617 1.124-1.594-12.643 3.507-24.506 11.276q-79.804 51.514-159.605 103.774c-39.371 25.777-39.018 61.44 0 87.217l149.892 97.633c5.65 3.708 11.123 7.415 17.655 10.593 32.132 17.655 58.262 3.531 59.498-33.545-0.177-17.302-0.706-34.957-0.706-54.201z" />
<glyph unicode="&#x53;" glyph-name="seo" d="M640 324.32h-151.52v87.84h126.24c8.837 0 16 7.163 16 16v66.080c0 8.837-7.163 16-16 16h-126.24v73.6h150.72c8.837 0 16 7.163 16 16v66.080c0 8.837-7.163 16-16 16h-249.6c-8.837 0-16-7.163-16-16v-423.68c0-8.837 7.163-16 16-16h250.4c8.837 0 16 7.163 16 16v66.080c0 8.837-7.163 16-16 16v0zM295.040 449.12c-27.243 25.69-60.119 44.648-96 55.36-12.16 5.28-22.24 10.24-30.56 14.88-6.525 3.489-12.689 7.616-18.4 12.32-3.204 2.715-5.771 6.102-7.52 9.92-1.675 3.943-2.493 8.197-2.4 12.48-0.196 5.436 0.618 10.861 2.4 16 1.559 4.269 3.952 8.185 7.040 11.52 2.931 2.939 6.485 5.181 10.4 6.56 5.121 1.88 10.545 2.802 16 2.72 5.868 0.144 11.7-0.947 17.12-3.2 4.517-1.996 8.474-5.073 11.52-8.96 3.693-4.755 6.412-10.192 8-16 2.034-7.016 3.004-14.297 2.88-21.6 0-8.837 7.163-16 16-16h80c6.879-0.018 12.999 4.363 15.2 10.88v1.76c0.51 1.55 0.78 3.169 0.8 4.8v4c0.199 18.749-3.337 37.351-10.4 54.72-6.484 17.080-16.394 32.653-29.12 45.76-14.215 13.736-31.172 24.314-49.76 31.040-19.396 6.945-39.88 10.359-60.48 10.080-20.14 0.235-40.186-2.791-59.36-8.96-17.943-5.928-34.569-15.273-48.96-27.52-14.061-11.771-25.321-26.529-32.96-43.2-7.485-16.923-11.25-35.256-11.040-53.76-0.308-17.979 2.842-35.85 9.28-52.64 6.347-15.934 16.381-30.136 29.28-41.44 30.757-24.553 65.881-43.065 103.52-54.56 14.493-5.372 27.766-13.586 39.040-24.16 2.89-3.307 5.069-7.174 6.4-11.36 1.694-5.545 2.504-11.323 2.4-17.12 0.050-5.427-0.76-10.827-2.4-16-1.304-3.972-3.43-7.625-6.24-10.72l11.84-10.72-11.68 10.080c-2.624-2.855-5.926-5.001-9.6-6.24-5.624-1.846-11.523-2.712-17.44-2.56-8.13-0.199-16.237 0.936-24 3.36-5.492 1.716-10.487 4.736-14.56 8.8-4.135 4.554-7.1 10.045-8.64 16-2.43 9.347-3.561 18.984-3.36 28.64 0 8.837-7.163 16-16 16h-81.28c-6.879 0.018-12.999-4.363-15.2-10.88v-1.76c-0.494-1.499-0.764-3.062-0.8-4.64v-4.48c-0.349-21.369 3.794-42.573 12.16-62.24 8.179-18.8 20.875-35.288 36.96-48 32.617-25.906 73.234-39.653 114.88-38.88 20.378 0.054 40.622 3.293 60 9.6 17.592 5.53 33.909 14.504 48 26.4 13.909 11.625 24.873 26.373 32 43.040 7.182 17.558 10.72 36.393 10.4 55.36 0.036 17.877-2.994 35.628-8.96 52.48-5.571 16.093-14.579 30.78-26.4 43.040v0zM996.96 584.64c-7.145 20.974-18.775 40.138-34.080 56.16-14.863 15.548-32.935 27.669-52.96 35.52-42.728 15.595-89.592 15.595-132.32 0-19.961-7.869-37.937-20.053-52.64-35.68-15.124-16.074-26.587-35.233-33.6-56.16-7.557-23.019-11.234-47.135-10.88-71.36v-118.72c-0.368-24.279 3.309-48.449 10.88-71.52 7.046-20.853 18.568-39.912 33.76-55.84 14.748-15.457 32.721-27.475 52.64-35.2 42.865-15.442 89.775-15.442 132.64 0 19.957 7.741 37.978 19.756 52.8 35.2 15.254 15.909 26.832 34.97 33.92 55.84 7.595 23.065 11.272 47.24 10.88 71.52v118.72c0.371 24.291-3.361 48.471-11.040 71.52v0zM794.4 514.080c-0.139 12.101 1.096 24.178 3.68 36 1.741 8.286 5.054 16.162 9.76 23.2 3.551 5.173 8.409 9.314 14.080 12 13.895 5.682 29.465 5.682 43.36 0 5.828-2.793 10.841-7.035 14.56-12.32 4.796-6.91 8.218-14.678 10.080-22.88 2.661-11.864 3.896-24.003 3.68-36.16v-119.68c0.189-12.156-1.046-24.292-3.68-36.16-1.735-8.364-5.106-16.303-9.92-23.36-3.719-5.285-8.732-9.527-14.56-12.32-13.738-5.637-29.142-5.637-42.88 0-5.778 2.728-10.742 6.92-14.4 12.16-4.815 7.115-8.185 15.106-9.92 23.52-2.646 12.029-3.881 24.325-3.68 36.64v119.36h-0.16z" />
<glyph unicode="&#x54;" glyph-name="trash" horiz-adv-x="796" d="M57.026 903.15c0 0 0 0 0 0 0-31.397 25.452-56.85 56.85-56.85 0.062 0 0.124 0 0.177 0h568.497c0 0 0 0 0 0 31.397 0 56.85 25.452 56.85 56.85s-25.452 56.85-56.85 56.85c0 0 0 0 0 0h-568.506c-31.383-0.099-56.817-25.472-57.017-56.85zM739.585 618.726c31.286 0.099 56.641 25.392 56.84 56.673v57.026c0 0 0 0.001 0 0.001 0 31.397-25.452 56.85-56.85 56.85-0.124 0-0.248 0-0.353-0.001h-681.833c-0.062 0-0.124 0-0.186 0-31.433 0-56.926-25.431-57.026-56.85v-56.85c0-31.397 25.452-56.85 56.85-56.85v-625.523c0 0 0 0 0 0 0-31.53 25.51-57.102 57.026-57.202h568.516c31.457 0.2 56.908 25.713 57.007 57.203v625.523zM170.726 618.726h113.699v-569.026h-113.699v569.026zM341.451 618.726h113.699v-569.026h-113.699v569.026zM512.177 618.726h113.699v-569.026h-113.876v569.026z" />
<glyph unicode="&#x55;" glyph-name="uptime" horiz-adv-x="1134" d="M57.234 390.583h217.051l164.571-418.011c8.581-21.457 29.195-36.339 53.284-36.339 28.233 0 51.692 20.443 56.381 47.334l119.455 695.199 89.966-250.149c8.129-22.356 29.192-38.034 53.918-38.034 0.009 0 0.018 0 0.026 0h264.593c31.711 0 57.417 25.707 57.417 57.417s-25.707 57.417-57.417 57.417h-223.817l-150.126 416.549c-8.447 21.735-29.2 36.861-53.486 36.861-27.832 0-51.024-19.866-56.17-46.191l-122.207-707.105-103.314 263.497c-8.551 21.544-29.217 36.526-53.389 36.571h-256.006c-31.711 0-57.417-25.707-57.417-57.417s25.707-57.417 57.417-57.417v0z" />
<glyph unicode="&#x56;" glyph-name="upload" horiz-adv-x="1365" d="M1050.836-64h-749.992c-0.424-0.002-0.925-0.003-1.426-0.003-15.013 0-29.805 0.942-44.322 2.77-117.762 14.242-218.304 105.483-247.147 224.715-3.005 14.041-5.359 25.576-7.949 36.169v69.208c-0.121-0.517 1.417 1.772 2.319 4.359 11.525 110.342 91.606 206.428 199.228 241.984 7.938 1.803 12.284 6.922 12.284 13.057 0 1.006-0.117 1.986-0.338 2.925 0.011 0.63 0.007 1.476 0.007 2.323 0 163.941 132.901 296.842 296.842 296.842 20.495 0 40.506-2.077 59.832-6.032-0.203-0.254 1.768-0.59 3.817-0.59 6.46 0 12.14 3.336 15.413 8.378 26.059 43.611 96.992 96.055 180.393 117.272-11.657-2.522 15.599 5.389 44.039 9.689 10.816 1.059 21.262 1.533 31.817 1.533 18.246 0 36.161-1.416 53.642-4.144 69.441-4.088 148.797-45.322 204.691-107.946 55.785-58.363 89.947-137.21 89.947-224.035 0-13.662-0.846-27.126-2.488-40.343-0.163 0.309-0.348-1.151-0.348-2.653 0-6.791 3.784-12.699 9.359-15.729 68.861-34.597 134.23-117.504 155.763-216.754-1.424 7.797 3.362-11.618 5.916-31.73 1.696-13.937 2.586-28.537 2.586-43.344s-0.889-29.407-2.618-43.748c-15.395-134.38-118.284-249.368-253.362-283.546-10.044-3.904-33.128-8.976-57.16-10.586zM633.468 145.743h146.185c12.397 1.14 22.314 11.010 23.532 23.433l0.009 195.727c0.974 12.508 10.94 22.506 23.448 23.534l97.549 0.006c14.36 0 48.493 0 0 48.728l-195.149 194.913c-6.226 6.256-14.843 10.128-24.364 10.128s-18.139-3.872-24.363-10.127l-195.15-194.914c-49.199-49.199-11.535-48.728 0-48.728h97.457c13.001 0 23.54-10.539 23.54-23.54v-194.913c0.741-13.575 11.929-24.302 25.623-24.302 0.592 0 1.18 0.020 1.763 0.060z" />
<glyph unicode="&#x57;" glyph-name="world" d="M365.714 18.103c5.976-10.646 28.073-27.415 54.041-35.262 31.188-10.424 66.163-16.318 102.515-16.318 38.771 0 75.977 6.704 110.52 19.015-13.109-5.71 1.945-0.090 15.19 8.16-33.216 43.97-73.627 69.57-128.484 67.193s-103.131-25.783-153.783-42.789zM125.074 219.246c-3.508 4.984-5.606 11.179-5.606 17.865 0 9.726 4.44 18.414 11.404 24.149 7.002 8.637 15.414 15.952 21.631 24.912-4.73-9.278 15.3 15.941 28.060 45.071 11.803 37.763 8.328 48.369-17.82 67.203-1.097 0-2.011 1.829-3.109 2.56-14.538 5.499-40.503 33.064-54.492 66.844-3.657 7.945-7.497 14.527-10.423 21.659-15.909 34.194-29.989 68.206-21.577 108.434 8.298 9.68-1.302 0.041-8.378-11.33 20.448 38.773-2.988 0.547-18.783-41.421-10.326-34.045-15.799-70.328-15.799-107.889s5.474-73.844 15.667-108.095c-0.221-16.144 12.884-49.446 33.481-76.783 3.135-7.668 21.778-23.63 44.121-32.032zM454.217 861.257l1.28-2.194c8.042 10.711 0.704-0.748-8.764-10.044-18.299-15.19-36.584-30.184-54.87-45.361 59.907 40.798 9.274 11.484-33.074-26.82-1.783-2.523-3.062-6.094-3.062-9.964 0-1.683 0.242-3.309 0.693-4.846 2.261-3.854 6.823-6.973 12.148-7.552 0.898-0.057 1.861-0.085 2.832-0.085 6.38 0 12.471 1.238 18.045 3.486q91.104 35.176 180.521 71.382c2.854 1.477 5.345 4.779 6.024 8.702 0.122 0.926 0.186 1.91 0.186 2.909 0 12.725-10.315 23.040-23.040 23.040-1.615 0-3.192-0.166-4.713-0.482-0.754-0.189-1.792-0.313-2.859-0.313-6.948 0-12.673 5.237-13.443 11.979-2.099 5.094-3.315 10.939-3.315 17.068 0 0.45 0.007 0.898 0.020 1.345 0.23 0.933 0.363 2.080 0.363 3.259 0 7.25-5.023 13.327-11.779 14.94 8.614-5.016-0.37 1.021-10.353 5.127-9.261 4.806-26.68 9.694-45.095 10.962-78.148-2.53-171.621-39.469-246.413-98.904 37.597 34.161-25.949-13.059-74.639-72.857l13.606-28.078c4.925-1.539 10.588-2.426 16.458-2.426 9.768 0 18.962 2.455 27 6.781 6.459 3.32 14.452 5.354 22.919 5.354s16.46-2.034 23.515-5.639c-4.164 1.729 1.135-0.895 6.854-2.522 4.053-1.832 8.393-2.851 12.97-2.851 16.663 0 30.171 13.508 30.171 30.171 0 0.137-0.001 0.273-0.003 0.409 0.016-0.566 0.75 3.026 1.083 6.734 0.525 10.233 6.505 19.572 15.231 24.801-11.879-9.884-0.573 0.973 12.66 8.961q56.969 30.067 113.837 59.141c-6.309-2.273 3.829 2.272 14.694 4.98zM503.223 618.789c13.531 6.4 26.514 12.069 39.314 18.286 5.65 2.873 12.322 4.556 19.386 4.556 4.433 0 8.71-0.663 12.74-1.894-1.772 5.663 56.736-14.645 107.651-46.072-11.303 9.775 12.401-6.356 30.666-27.346 12.963-14.089 23.386-30.18 35.272-44.992-6.989 3.404 18.165-26.478 49.745-47.457 10.514-6.811 22.49-10.592 35.348-10.592 3.984 0 7.883 0.363 11.666 1.058 11.396 0.105 20.89 9.701 20.89 21.515 0 4.048-1.114 7.835-3.053 11.072-0.976 1.882-1.581 4.226-1.581 6.711 0 1.416 0.196 2.787 0.563 4.086 2.929 2.032 6.625 3.313 10.621 3.313 0.759 0 1.507-0.046 2.242-0.136 2.334-0.111 7.185-2.578 10.887-6.212 25.231-20.659 50.099-41.688 75.699-61.985 12.069-9.509 21.211-6.949 25.783 7.863 3.369 9.396 5.316 20.237 5.316 31.532 0 0.55-0.005 1.099-0.014 1.647-0.263 42.389-13.256 99.616-36.027 151.584 7.501-12.427-6.079 20.844-26.073 49.278 118.608-161.488 35.527-28.798-71.081 80.907 50.945-50.529 7.397-0.455-45.169 38.030-7.394 5.781-15.317 8.763-23.936 8.763-5.84 0-11.361-1.369-16.258-3.804-12.222-5.39-24.473-11.424-36.359-18.19-16.64-8.046-18.286-7.314-25.234 9.326-1.026 10.748-10.008 19.088-20.939 19.088-5.21 0-9.977-1.894-13.65-5.032-22.28-13.69-43.857-28.867-65.434-43.679-4.895-3.332-8.068-8.878-8.068-15.165 0-2.441 0.478-4.771 1.347-6.9q2.882-8.289 5.259-17.066c1.995-2.751 3.191-6.194 3.191-9.917 0-8.97-6.946-16.319-15.752-16.96-21.084-8.049-42.661-15.546-63.141-24.689 2.909 3.329-14.693-6.197-28.765-19.435-6.227-5.566-10.163-13.695-10.163-22.744 0-6.523 2.045-12.568 5.529-17.53zM593.554 562.834c-20.993 12.338-46.239 19.625-73.188 19.625-1.463 0-2.921-0.021-4.373-0.064-65.067-5.298-106.027-42.966-133.821-97.824-3.271-5.69-5.2-12.511-5.2-19.782 0-12.99 6.157-24.542 15.711-31.897-8.384 4.063 15.818-14.994 43.748-27.058-34.324 12.321 16.004-9.664 69.761-22.946 21.284-3.464 36.121-17.656 39.951-35.897-2.367 6.813 0.391-0.114 2.137-7.433 6.143-39.307 12.36-78.073 18.395-116.838-2.344 10.411 2.408-32.601 10.992-74.213 6.928-25.261 26.676-31.295 52.459-13.924-12.475-9.056 4.526 1.252 18.3 14.826-29.756-26.513 2.517-1.845 27.796 28.806 26.681 35.728 52.647 71.202 77.332 107.408 1.65 7.609 18.879 26.348 40.565 37.757 21.975 7.156 37.189 26.885 37.189 50.166 0 0.718-0.014 1.433-0.043 2.144-0.063 0.2-0.1 0.548-0.1 0.904s0.038 0.703 0.109 1.038c0.586 1.261 0.931 2.772 0.931 4.365 0 4.378-2.608 8.147-6.355 9.838 36.045-26.123 5.795-0.803-28.714 17.572-17.225 5.638-35.937 23.326-45.206 45.89 10.205-22.437 0.183 4.434-14.439 28.168 14.264-22.666 0.548 3.173-17.978 24.763-1.787 2.226-6.771 5.211-12.43 6.305-19.907 4.414-40.204 7.34-59.587 12.643 26.012-9.617-12.883 1.666-48.169 19.14-4.050 0.727-8.367 6.070-8.367 12.422 0 1.803 0.348 3.525 0.981 5.102zM539.977-64h-55.954c2.685-0.476-3.199 1.009-9.304 1.788-65.31 1.008-144.474 24.437-212.994 64.186-120.342 57.945-225.505 193.667-253.256 355.816-4.080 22.553-5.909 42.484-8.469 62.233v55.954c-0.579-3.095 0.961 2.979 1.785 9.279 1.727 81.753 33.964 174.177 87.408 250.693 62.601 105.24 193.094 195.584 345.686 217.516 18.059 2.695 33.601 4.341 49.144 6.17h55.954c-2.808 0.507 3.133-0.994 9.296-1.787 44.675-0.295 103.039-13.054 156.284-35.552 169.597-73.29 274.922-202.57 310.579-387.438 3.84-19.749 5.303-40.046 7.863-60.16v-54.857c0.445 2.562-1.023-3.265-1.789-9.311-0.264-42.76-13.201-101.078-35.915-154.22-75.118-174.938-208.604-281.544-400.055-314.458-15.177-2.56-30.72-3.84-46.263-5.851z" />
<glyph unicode="&#x58;" glyph-name="pos_middle" d="M0 255.81c0-35.241 28.456-63.81 64.056-63.81h895.888c35.377 0 64.056 28.994 64.056 63.81v384.38c0 35.241-28.456 63.81-64.056 63.81h-895.888c-35.377 0-64.056-28.994-64.056-63.81v-384.38zM0 800c0-17.673 14.476-32 31.769-32h960.462c17.546 0 31.769 14.844 31.769 32 0 17.673-14.476 32-31.769 32h-960.462c-17.546 0-31.769-14.844-31.769-32zM0 96c0-17.673 14.476-32 31.769-32h960.462c17.546 0 31.769 14.844 31.769 32 0 17.673-14.476 32-31.769 32h-960.462c-17.546 0-31.769-14.844-31.769-32zM0-32c0-17.673 14.476-32 31.769-32h960.462c17.546 0 31.769 14.844 31.769 32 0 17.673-14.476 32-31.769 32h-960.462c-17.546 0-31.769-14.844-31.769-32zM0 928c0-17.673 14.476-32 31.769-32h960.462c17.546 0 31.769 14.844 31.769 32 0 17.673-14.476 32-31.769 32h-960.462c-17.546 0-31.769-14.844-31.769-32z" />
<glyph unicode="&#x59;" glyph-name="pos_footer" d="M0 384.19c0 35.241 28.456 63.81 64.056 63.81h895.888c35.377 0 64.056-28.994 64.056-63.81v-384.38c0-35.241-28.456-63.81-64.056-63.81h-895.888c-35.377 0-64.056 28.994-64.056 63.81v384.38zM0 672c0 17.673 14.476 32 31.769 32h960.462c17.546 0 31.769-14.844 31.769-32 0-17.673-14.476-32-31.769-32h-960.462c-17.546 0-31.769 14.844-31.769 32zM0 800c0 17.673 14.476 32 31.769 32h960.462c17.546 0 31.769-14.844 31.769-32 0-17.673-14.476-32-31.769-32h-960.462c-17.546 0-31.769 14.844-31.769 32zM0 928c0 17.673 14.476 32 31.769 32h960.462c17.546 0 31.769-14.844 31.769-32 0-17.673-14.476-32-31.769-32h-960.462c-17.546 0-31.769 14.844-31.769 32zM0 544c0 17.673 14.476 32 31.769 32h960.462c17.546 0 31.769-14.844 31.769-32 0-17.673-14.476-32-31.769-32h-960.462c-17.546 0-31.769 14.844-31.769 32z" />
<glyph unicode="&#x5a;" glyph-name="star" horiz-adv-x="1108" d="M1061.82 608.734h-294.154c-0.215-0.002-0.468-0.003-0.722-0.003-32.971 0-61.217 20.227-73.008 48.949 2.219-5.396-0.573 0.484-2.378 6.781l-86.442 257.146-2.101 6.494c-8.374 19.126-27.135 32.245-48.96 32.245-23.194 0-42.927-14.817-50.25-35.502l-0.115-0.373-87.291-257.862c1.558 5.097-0.132-1.945-2.835-8.46-12.006-28.401-40.045-48.274-72.727-48.274-0.296 0-0.592 0.002-0.887 0.005h-294.682c-25.642-3.248-45.271-24.925-45.271-51.186 0-0.136 0.001-0.272 0.002-0.407 0.027-16.564 8.167-31.293 20.675-40.373l2.628-1.819 229.211-161.021c20.484-13.761 33.881-36.915 34-63.206 0-0.107 0.001-0.211 0.001-0.316 0-6.067-0.767-11.955-2.208-17.572 1.142 2.679-1.008-5.384-4.459-12.715l-86.355-256.883v-1.91c-1.388-4.412-2.187-9.486-2.187-14.747 0-28.061 22.748-50.808 50.808-50.808 0.702 0 1.401 0.014 2.096 0.042-0.047-0.003 0.015-0.004 0.077-0.004 9.536 0 18.494 2.478 26.264 6.826l8.705 6.163 231.885 162.74c12.206 7.704 27.058 12.276 42.977 12.276s30.771-4.572 43.314-12.474c-7.243 4.386 0.917 0.236 7.788-5.423l-0.102 0.082 231.885-162.931c7.777-4.564 17.128-7.259 27.108-7.259 0.073 0 0.145 0 0.218 0 0.221-0.004 0.495-0.006 0.77-0.006 28.12 0 51.003 22.423 51.745 50.364-0.002 5.381-0.911 10.616-2.582 15.497l0.101 2.144-88.055 258.435c1.605-4.417-1.49 2.474-3.341 9.859-1.674 6.132-2.58 12.65-2.58 19.38 0 0.062 0 0.124 0 0.186 0.066 24.265 11.745 45.936 29.802 59.64l6.108 4.338 226.155 158.729 6.303 4.011c11.197 8.706 18.704 22.538 19.1 38.138-0.050 26.51-20.083 48.268-45.805 51.043z" />
<glyph unicode="&#x61;" glyph-name="lock" d="M568 112h-112l20.8 120c-28.8 12.8-48 41.6-48 75.2 0 46.4 36.8 83.2 83.2 83.2s83.2-36.8 83.2-83.2c0-33.6-19.2-62.4-48-75.2l20.8-120zM624 504h-224v168c0 62.4 51.2 112 112 112s112-49.6 112-112v-168zM736 504v168c0 123.2-100.8 224-224 224s-224-100.8-224-224v-168h-56c-30.4 0-56-25.6-56-56v-392c0-30.4 25.6-56 56-56h560c30.4 0 56 25.6 56 56v392c0 30.4-25.6 56-56 56h-56z" />
<glyph unicode="&#x62;" glyph-name="book" horiz-adv-x="727" d="M707.467 808.92c-2.704 9.436-9.638 16.489-18.143 19.762-0.335 0.134-0.671 0.263-1.011 0.385-0.338 0.116-0.678 0.224-1.020 0.328-3.334 1.063-6.841 1.586-10.376 1.438-0.732-0.032-1.507-0.048-2.322-0.048-4.964-0.008-11.389 0.645-18.57 2.063-12.594 2.459-27.479 7.227-42.21 13.683-11.060 4.833-22.069 10.603-32.15 16.917-7.561 4.732-14.603 9.77-20.762 14.877-4.621 3.827-8.744 7.693-12.233 11.443-5.247 5.621-9.006 11-11.161 15.356-1.087 2.179-1.496 4.090-1.911 5.683-0.417 1.597-0.265 2.865-0.265 3.929v0.147c0 9.547-4.633 18.687-12.259 24.436-7.624 5.749-17.788 7.537-26.931 4.782l-474.675-143.044c-12.698-3.827-21.469-15.534-21.469-28.795v-666.072c0-10.182 1.798-20.104 4.889-29.476 2.707-8.21 6.395-16.027 10.827-23.458 7.77-13.003 17.797-24.86 29.448-35.633 17.493-16.137 38.693-29.876 62.282-40.397 23.591-10.496 49.603-17.75 76.729-20.243 3.777-0.346 7.663 0.039 11.299 1.119 0.985 0.293 2.247 0.677 3.919 1.192 6.43 1.98 18.749 5.841 35.546 11.126 117.454 36.968 452.335 143.268 452.35 143.274 12.466 3.956 20.976 15.585 20.976 28.664v653.767c0.633 4.15 0.433 8.495-0.798 12.795v0zM542.709 817.019c8.776-5.86 17.982-11.248 27.4-16.17-39.795-11.404-87.554-25.093-135.832-38.936-59.784-17.143-120.357-34.518-167.561-48.078-23.603-6.78-43.863-12.604-59.017-16.971-7.579-2.183-13.88-4.001-18.692-5.395-1.489-0.43-2.812-0.814-4.006-1.161-15.907 1.901-31.585 5.708-46.115 10.997-12.141 4.412-23.481 9.844-33.481 15.902-7.501 4.541-14.245 9.436-20.027 14.452-7.916 6.848-13.95 13.929-17.953 20.448l416.585 125.558c1.54-3.032 3.209-5.977 5.006-8.824 4.783-7.561 10.395-14.531 16.585-21.076 10.842-11.437 23.473-21.618 37.108-30.746v0zM105.647 46.507c-7.508 4.95-14.299 10.286-20.161 15.755-8.803 8.197-15.457 16.72-19.586 24.403-2.075 3.839-3.531 7.454-4.447 10.723-0.916 3.275-1.302 6.188-1.302 8.803v568.871c14.659-10.516 31.171-19.49 48.965-26.74 14.961-6.078 30.833-10.922 47.275-14.275v-610.805c-5.932 1.717-11.765 3.705-17.43 5.962-12.018 4.782-23.302 10.699-33.314 17.302v0zM256.541 40.302c-15.080-4.762-28.58-9.019-40-12.613v609.125c15.947 4.6 40.601 11.481 69.172 19.743v-267.943l83.133 83.765 55.211-27.922v252.161c45.112 12.656 89.321 25.505 129.125 36.914 37.621 10.783 71.111 20.275 94.933 27.1v-596.265c-42.103-13.361-141.164-44.792-237.658-75.363-56.069-17.762-111.271-35.236-153.917-48.702v0z" />
<glyph unicode="&#x63;" glyph-name="unlock" d="M800 512h-64v160c0 123.2-100.8 224-224 224s-224-100.8-224-224c0 0 0-40 0-48s8-16 16-16 72 0 80 0c8 0 16 8 16 16s0 48 0 48c0 62.4 51.2 112 112 112 62.4 0 112-49.6 112-112v-160h-400c-30.4 0-48-17.6-48-48v-408c0-30.4 25.6-56 56-56h560c30.4 0 56 25.6 56 56v408c0 30.4-17.6 48-48 48zM547.2 232l20.8-120h-112l20.8 120c-28.8 12.8-48 41.6-48 75.2 0 46.4 36.8 83.2 83.2 83.2s83.2-36.8 83.2-83.2c0-32-19.2-60.8-48-75.2z" />
<glyph unicode="&#x64;" glyph-name="plugin" d="M272 736c16 16 544-512 528-528-65.6-65.6-160-112-272-112-75.2 0-164.8 0-224 0-12.8 0-24-4.8-32-12.8-20.8-17.6-38.4-38.4-59.2-57.6-35.2-33.6-86.4-33.6-120 0-35.2 33.6-35.2 84.8-1.6 121.6 17.6 19.2 38.4 36.8 56 57.6 8 9.6 12.8 22.4 12.8 35.2 0 67.2 0 139.2 0 224 0 112 48 208 112 272zM785.6 353.6c-16-16-128 96-112 112s139.2 137.6 176 174.4c33.6 33.6 144-80 112-110.4-59.2-59.2-116.8-116.8-176-176zM545.6 593.6c-16-16-128 96-112 112s139.2 137.6 176 174.4c33.6 33.6 144-80 112-110.4-59.2-59.2-116.8-116.8-176-176z" />
<glyph unicode="&#x65;" glyph-name="caret_down" d="M779.2 508.8l-204.8-204.8c-14.4-14.4-32-32-62.4-32s-49.6 17.6-62.4 32l-204.8 204.8c-27.2 27.2-27.2 67.2 0 94.4s67.2 27.2 94.4 0l172.8-172.8 172.8 172.8c27.2 27.2 67.2 27.2 94.4 0s27.2-67.2 0-94.4z" />
<glyph unicode="&#x66;" glyph-name="power" d="M848 726.4c-16 20.8-46.4 24-67.2 6.4-20.8-16-24-46.4-6.4-67.2v0c48-59.2 75.2-131.2 75.2-212.8 0-92.8-38.4-177.6-99.2-238.4s-145.6-99.2-238.4-99.2c-92.8 0-177.6 38.4-238.4 99.2s-99.2 145.6-99.2 238.4c0 80 27.2 153.6 75.2 212.8 16 20.8 12.8 49.6-6.4 67.2-20.8 16-49.6 12.8-67.2-6.4-60.8-75.2-96-169.6-96-272 0-118.4 48-227.2 126.4-305.6s185.6-126.4 305.6-126.4c118.4 0 227.2 48 305.6 126.4s126.4 187.2 126.4 307.2c0 102.4-35.2 196.8-96 270.4zM512 398.4c27.2 0 48 20.8 48 48v384c0 27.2-20.8 48-48 48s-48-20.8-48-48v-384c0-27.2 20.8-48 48-48z" />
<glyph unicode="&#x67;" glyph-name="radio_checked" d="M512 896c-248 0-448-200-448-448s200-448 448-448 448 200 448 448-200 448-448 448zM720 496l-176-176c-3.2-3.2-28.8-32-64-32s-60.8 28.8-64 32l-112 112c-16 16-16 48 0 64s48 14.4 64-1.6l112-110.4 176 176c16 16 48 16 64 0s16-48 0-64z" />
<glyph unicode="&#x68;" glyph-name="radio_default, radio" d="M512 803.2c195.2 0 355.2-158.4 355.2-355.2s-160-355.2-355.2-355.2-355.2 160-355.2 355.2 160 355.2 355.2 355.2zM512 896c-248 0-448-200-448-448s200-448 448-448 448 200 448 448-200 448-448 448z" />
<glyph unicode="&#x69;" glyph-name="download_alt" d="M753.6 112c-174.4 0-318.4 0-492.8 0-16 0-27.2 1.6-28.8 1.6-80 11.2-145.6 70.4-163.2 150.4-1.6 8-3.2 14.4-4.8 22.4 0 14.4 0 30.4 0 44.8 0 1.6 1.6 1.6 1.6 3.2 12.8 78.4 57.6 131.2 132.8 160 6.4 1.6 6.4 4.8 6.4 9.6-1.6 123.2 112 217.6 233.6 193.6 6.4-1.6 9.6 0 14.4 4.8 32 38.4 72 64 120 76.8 9.6 1.6 19.2 4.8 28.8 6.4 25.6 3.2 52.8-1.6 54.4-1.6 54.4-8 99.2-30.4 136-70.4 44.8-49.6 64-105.6 57.6-172.8 0-6.4 1.6-9.6 6.4-12.8 54.4-33.6 88-81.6 102.4-144 1.6-8 3.2-12.8 3.2-20.8 3.2-28.8 0-54.4 0-56-12.8-91.2-78.4-164.8-168-188.8-12.8-3.2-27.2-6.4-40-6.4zM560 560c-32 0-73.6 0-96 0-8 0-16-8-16-16 0-43.2 0-84.8 0-128 0-9.6-8-16-16-16-27.2 0-38.4 0-64 0-9.6 0-32 0 0-32 44.8-44.8 84.8-84.8 128-128 8-8 22.4-9.6 32 0 43.2 43.2 84.8 84.8 128 128 32 32 8 32 0 32-16 0-48 0-64 0-9.6 0-16 8-16 16 0 48 0 80 0 128 0 9.6-8 16-16 16z" />
<glyph unicode="&#x6a;" glyph-name="rocket" d="M603.2 182.4c-36.8-36.8-148.8-36.8-184 0-19.2 19.2-35.2 0-35.2-19.2 0-33.6 0-78.4 0-112 0-19.2 17.6-36.8 36.8-19.2 11.2 11.2 24 24 36.8 36.8 11.2-27.2 25.6-64 36.8-92.8 9.6-24 27.2-24 36.8 0 9.6 25.6 27.2 70.4 36.8 92.8 9.6-9.6 17.6-17.6 36.8-36.8 17.6-17.6 36.8 0 36.8 19.2 0 32 0 78.4 0 112-1.6 19.2-19.2 38.4-38.4 19.2zM800 419.2c-19.2 19.2-80 60.8-80 80 0 168-51.2 307.2-144 400-52.8 52.8-76.8 51.2-128 0-92.8-92.8-144-232-144-400 0-17.6-62.4-62.4-80-80-36.8-36.8-32-76.8-32-96 0-56 25.6-140.8 32-160 11.2-36.8 60.8-35.2 80-16 36.8 36.8 83.2 83.2 96 96 56-56 168-56 224 0 12.8-12.8 59.2-59.2 96-96 19.2-19.2 70.4-20.8 80 16 4.8 19.2 32 104 32 160 0 19.2 4.8 59.2-32 96zM512 534.4c-52.8 0-96 43.2-96 96s43.2 96 96 96c51.2 0 96-44.8 96-96 0-49.6-43.2-96-96-96zM560 630.4c0-26.51-21.49-48-48-48s-48 21.49-48 48c0 26.51 21.49 48 48 48s48-21.49 48-48z" />
<glyph unicode="&#x6b;" glyph-name="search" d="M923.2 137.6l-228.8 230.4c33.6 52.8 52.8 112 52.8 179.2-1.6 184-150.4 332.8-334.4 332.8s-332.8-148.8-332.8-332.8 148.8-332.8 332.8-332.8c67.2 0 126.4 19.2 179.2 52.8l230.4-230.4c28.8-28.8 73.6-28.8 100.8 0s27.2 73.6 0 100.8zM174.4 547.2c0 131.2 105.6 238.4 238.4 238.4s238.4-105.6 238.4-238.4-107.2-236.8-238.4-236.8-238.4 105.6-238.4 236.8z" />
<glyph unicode="&#x6c;" glyph-name="theme" d="M336 704c113.6-113.6 224-224 336-336 16-16 16-33.6 0-48-24-24-57.6-57.6-80-80-16-16-32-16-48 0-17.6 17.6-62.4 62.4-80 80-30.4 28.8-51.2 12.8-64 0-16-16-80-128-160-208-81.6-81.6-152-104-208-48s-33.6 126.4 48 208c80 80 192 144 208 160s32 32 0 64c-19.2 19.2-60.8 60.8-80 80-16 16-16 32 0 48 24 24 56 56 80 80 16 16 32 17.6 48 0zM384 800c17.6 17.6 36.8 35.2 56 52.8 27.2 25.6 62.4 19.2 94.4 16 44.8-4.8 84.8-24 121.6-51.2 32-25.6 64-52.8 99.2-75.2 81.6-54.4 169.6-92.8 268.8-73.6-80-80-176-172.8-256-252.8-16-16-32-16-48 0-30.4 30.4-310.4 308.8-337.6 336-14.4 14.4-14.4 32 1.6 48z" />
<glyph unicode="&#x6d;" glyph-name="speach" d="M699.206 589.081h-345.743c-13.632 0-24.696-11.014-24.696-24.696 0-13.632 11.064-24.696 24.696-24.696h345.743c13.632 0 24.696 11.064 24.696 24.696 0 13.682-11.064 24.696-24.696 24.696zM699.206 292.729h-345.743c-13.632 0-24.696-11.014-24.696-24.696 0-13.632 11.064-24.696 24.696-24.696h345.743c13.632 0 24.696 11.064 24.696 24.696 0 13.682-11.064 24.696-24.696 24.696zM699.206 440.905h-345.743c-13.632 0-24.696-11.014-24.696-24.696 0-13.632 11.064-24.696 24.696-24.696h345.743c13.632 0 24.696 11.064 24.696 24.696 0 13.682-11.064 24.696-24.696 24.696zM501.639 931.12c-272.742 0-493.919-221.226-493.919-493.919 0-109.897 35.908-211.447 96.611-293.437l-51.318-177.218 175.983 58.727c78.089-51.911 171.884-81.991 272.643-81.991 272.742 0 493.919 221.078 493.919 493.919 0 272.693-221.177 493.919-493.919 493.919v0zM501.639 42.065c-78.138 0-153.461 22.671-217.917 65.494-16.398 10.916-35.463 16.497-54.726 16.497-9.681 0-19.362-1.432-28.845-4.297 7.162 28.598 1.185 59.023-16.398 82.781-50.528 68.21-77.249 149.312-77.249 234.661 0 217.868 177.268 395.135 395.135 395.135s395.135-177.268 395.135-395.135c0-217.868-177.268-395.135-395.135-395.135v0z" />
<glyph unicode="&#x6e;" glyph-name="support" horiz-adv-x="847" d="M504.231 4.118c22.087 9.699 42.18 20.276 60.268 31.085 39.815 23.797 69.925 48.698 90.442 68.056 1.536-0.142 3.092-0.214 4.664-0.214 27.658 0 50.078 22.421 50.078 50.078v206.037c0 27.658-22.421 50.078-50.078 50.078s-50.078-22.421-50.078-50.078v-200.346c-6.829-6.618-15.244-14.275-25.222-22.478-15.543-12.784-34.873-26.902-57.905-40.556-14.759-8.751-31.036-17.312-48.824-25.227-11.141 4.622-23.975 5.258-36.212 0.833-16.277-5.886-33.641-11.126-52.114-15.437-26.934-6.284-43.674-33.213-37.388-60.147 6.284-26.934 33.213-43.674 60.147-37.388 22.439 5.235 43.588 11.614 63.421 18.787 13.406 4.849 23.478 14.826 28.803 26.918zM101.589 257.573v277.577c0.007 42.612 8.608 82.95 24.154 119.726 23.312 55.141 62.386 102.213 111.51 135.39 24.558 16.59 51.606 29.709 80.464 38.686 28.862 8.974 59.532 13.819 91.496 13.822 42.612-0.007 82.948-8.608 119.726-24.154 55.141-23.312 102.213-62.386 135.39-111.51 16.59-24.558 29.709-51.605 38.686-80.463 8.974-28.864 13.819-59.533 13.822-91.497v-277.577c0-27.658 22.421-50.078 50.078-50.078s50.078 22.421 50.078 50.078v277.577c0.007 56.165-11.411 109.929-32.066 158.743-30.991 73.243-82.631 135.406-147.685 179.366-32.532 21.979-68.44 39.405-106.787 51.33-38.341 11.929-79.124 18.344-121.243 18.342-56.165 0.007-109.929-11.411-158.743-32.066-73.243-30.991-135.406-82.629-179.366-147.685-21.977-32.532-39.405-68.44-51.33-106.787-11.929-38.34-18.344-79.124-18.342-121.243v-277.577c0-27.658 22.421-50.078 50.078-50.078s50.078 22.421 50.078 50.078zM108.743 357.729v-206.037c0-27.658 22.421-50.078 50.078-50.078s50.078 22.421 50.078 50.078v206.037c0 27.658-22.421 50.078-50.078 50.078s-50.078-22.421-50.078-50.078z" />
<glyph unicode="&#x6f;" glyph-name="edit" d="M380.8 412.8l96-96c6.4-6.4 17.6-6.4 24 4.8l315.2 313.6c6.4 1.6 6.4 12.8 0 19.2l-96 96c-6.4 6.4-17.6 6.4-24 0l-315.2-313.6c-6.4-6.4-6.4-17.6 0-24zM345.6 390.4l-3.2-3.2-1.6-3.2-46.4-136-1.6-3.2c-1.6-4.8 0-8 3.2-11.2s8-4.8 11.2-3.2l3.2 1.6 136 46.4 3.2 1.6 3.2 3.2c4.8 4.8 4.8 12.8 0 17.6l-91.2 91.2c-3.2 3.2-11.2 3.2-16-1.6zM916.8 787.2l-65.6 65.6c-14.4 14.4-40 14.4-54.4 0l-56-56c-6.4-6.4-6.4-17.6 0-24l96-96c6.4-6.4 17.6-6.4 24 0l56 56c14.4 14.4 14.4 40 0 54.4zM832 528c-24 0-48-24-48-48v-361.6l-592-6.4v608h352c24 0 48 24 48 48s-24 48-48 48h-400c-24 0-48-24-48-48v-704c0-24 24-48 48-48h688c25.6 0 48 22.4 48 48 0 4.8 0 416 0 416 0 24-24 48-48 48z" />
<glyph unicode="&#x70;" glyph-name="info" d="M512 800c195.2 0 352-156.8 352-352s-156.8-352-352-352-352 156.8-352 352 156.8 352 352 352zM512 896c-248 0-448-200-448-448s200-448 448-448 448 200 448 448-200 448-448 448zM523.2 396.8c0-11.2 6.4-19.2 6.4-30.4 0-14.4-11.2-28.8-27.2-28.8-27.2 0-41.6 41.6-41.6 64 0 92.8 121.6 102.4 121.6 174.4 0 33.6-24 62.4-76.8 62.4-36.8 0-65.6-14.4-88-36.8-6.4-4.8-12.8-8-20.8-8-16 0-30.4 14.4-30.4 32 0 6.4 1.6 14.4 6.4 19.2 32 38.4 84.8 59.2 139.2 59.2 88 0 142.4-51.2 142.4-116.8 1.6-110.4-131.2-120-131.2-190.4zM508.8 192c-24 0-44.8 20.8-44.8 46.4 0 24 19.2 46.4 44.8 46.4 24 0 44.8-22.4 44.8-46.4-1.6-25.6-22.4-46.4-44.8-46.4z" />
<glyph unicode="&#x71;" glyph-name="badge" d="M683.2 276.8l-163.2 113.6-163.2-113.6 65.6 179.2-131.2 97.6h163.2l65.6 179.2 65.6-179.2h163.2l-131.2-97.6 65.6-179.2zM912 374.4c0 65.6-19.2 97.6-32 131.2-12.8 35.2-24 64-32 81.6-28.8 65.6 0 131.2 16 147.2s32 32 49.6 49.6c-19.2 20.8-62.4 59.2-81.6 81.6-33.6-16-81.6-32-147.2-32s-132.8 33.6-163.2 65.6c-33.6-35.2-116.8-67.2-180.8-67.2-67.2 0-99.2 14.4-131.2 32-17.6-17.6-54.4-54.4-81.6-81.6 12.8-12.8 30.4-30.4 49.6-49.6 16-16 44.8-97.6 16-147.2-9.6-16-32-51.2-49.6-81.6-16-32-32-65.6-32-131.2s32-168 97.6-212.8c49.6-32 131.2-32 179.2-49.6 49.6-16 113.6-81.6 131.2-113.6 16 32 83.2 97.6 131.2 113.6 49.6 17.6 131.2 16 179.2 49.6 70.4 49.6 81.6 148.8 81.6 214.4z" />
<glyph unicode="&#x72;" glyph-name="caret_up" d="M779.2 292.8c-27.2-27.2-67.2-27.2-94.4 0l-172.8 172.8-172.8-172.8c-27.2-27.2-67.2-27.2-94.4 0s-27.2 67.2 0 94.4l204.8 204.8c14.4 14.4 32 32 62.4 32s49.6-17.6 62.4-32l204.8-204.8c27.2-27.2 27.2-67.2 0-94.4z" />
<glyph unicode="&#x73;" glyph-name="options" d="M224 448c0-61.856-50.144-112-112-112s-112 50.144-112 112c0 61.856 50.144 112 112 112s112-50.144 112-112zM624 448c0-61.856-50.144-112-112-112s-112 50.144-112 112c0 61.856 50.144 112 112 112s112-50.144 112-112zM1024 448c0-61.856-50.144-112-112-112s-112 50.144-112 112c0 61.856 50.144 112 112 112s112-50.144 112-112z" />
<glyph unicode="&#x74;" glyph-name="cog" d="M740.8 448v0c0-25.6-4.8-51.2-12.8-75.2-3.2-9.6-6.4-17.6-11.2-25.6-11.2-22.4-25.6-43.2-43.2-60.8s-38.4-32-60.8-44.8c-8-4.8-17.6-8-25.6-11.2-24-8-48-12.8-75.2-12.8v0c-25.6 0-51.2 4.8-73.6 12.8-9.6 3.2-17.6 6.4-27.2 11.2-22.4 11.2-43.2 25.6-60.8 43.2s-33.6 38.4-44.8 60.8c-4.8 8-8 17.6-11.2 27.2-8 24-12.8 48-12.8 73.6s4.8 51.2 12.8 75.2c3.2 9.6 6.4 17.6 11.2 27.2 11.2 22.4 25.6 43.2 44.8 60.8 17.6 17.6 38.4 32 60.8 43.2 8 4.8 17.6 8 27.2 11.2 24 8 48 12.8 73.6 12.8v0c25.6 0 51.2-4.8 75.2-12.8 9.6-3.2 17.6-6.4 25.6-11.2 22.4-11.2 43.2-25.6 60.8-44.8 17.6-17.6 32-38.4 43.2-60.8 4.8-8 8-17.6 11.2-25.6 8-22.4 12.8-48 12.8-73.6v0 0zM958.4 489.6v0c-1.6 17.6-16 32-33.6 33.6h-20.8c-22.4 0-41.6 12.8-49.6 30.4-1.6 4.8-3.2 9.6-4.8 14.4-4.8 11.2-9.6 22.4-14.4 33.6v0c-3.2 3.2-4.8 8-6.4 12.8v0c-1.6 6.4-3.2 12.8-3.2 19.2 0 16 6.4 28.8 16 40v0l11.2 11.2c12.8 14.4 14.4 35.2 1.6 49.6v0c-8 11.2-17.6 20.8-27.2 30.4s-20.8 19.2-30.4 28.8v0c-12.8 11.2-32 11.2-44.8 1.6l-8-8-8-9.6c-16-16-40-20.8-60.8-12.8-3.2 1.6-4.8 3.2-8 3.2-12.8 6.4-25.6 11.2-40 16-3.2 0-4.8 1.6-6.4 1.6v0c-6.4 3.2-12.8 6.4-19.2 12.8-9.6 9.6-14.4 20.8-16 32 0 4.8 0 9.6 0 14.4v12.8c0 17.6-12.8 33.6-30.4 36.8-1.6 0-4.8 0-6.4 0v0c-11.2 1.6-24 1.6-36.8 1.6s-25.6 0-36.8-1.6v0c-1.6 0-4.8 0-6.4 0-17.6-3.2-30.4-17.6-30.4-36.8v-16c0-24-14.4-44.8-36.8-52.8-1.6 0-3.2-1.6-4.8-1.6-14.4-4.8-28.8-11.2-43.2-17.6v0c-1.6 0-1.6-1.6-3.2-1.6-6.4-3.2-14.4-4.8-24-4.8-16 0-28.8 6.4-40 16v0l-11.2 11.2c-12.8 12.8-33.6 14.4-48 4.8-1.6-1.6-3.2-3.2-4.8-4.8v0c-9.6-8-19.2-16-27.2-25.6-9.6-8-17.6-17.6-25.6-27.2v0c-1.6-1.6-3.2-3.2-4.8-4.8-9.6-14.4-8-35.2 4.8-48l11.2-11.2c17.6-17.6 20.8-41.6 11.2-62.4 0-1.6-1.6-3.2-1.6-3.2-6.4-14.4-12.8-28.8-17.6-43.2 0-1.6-1.6-3.2-1.6-4.8v0c-3.2-6.4-6.4-14.4-12.8-19.2-11.2-11.2-25.6-16-40-16v0h-16c-17.6 0-33.6-12.8-36.8-30.4 0-1.6 0-4.8 0-6.4-1.6-14.4-1.6-27.2-1.6-40v0 0c0-12.8 0-24 1.6-36.8v0c0-1.6 0-4.8 0-6.4 3.2-17.6 17.6-30.4 36.8-30.4v0h16c24 0 44.8-14.4 52.8-35.2v0c0-1.6 1.6-3.2 1.6-4.8v0c4.8-14.4 11.2-28.8 17.6-43.2v0c0-1.6 1.6-1.6 1.6-3.2 3.2-6.4 4.8-14.4 4.8-24 0-16-6.4-28.8-16-40v0l-11.2-11.2c-12.8-12.8-14.4-32-4.8-46.4 1.6-1.6 3.2-3.2 4.8-6.4 8-9.6 16-19.2 25.6-27.2 8-8 17.6-17.6 27.2-25.6 1.6-1.6 3.2-3.2 6.4-4.8 12.8-8 30.4-8 43.2 1.6l16 16c17.6 17.6 41.6 20.8 62.4 11.2 1.6 0 1.6-1.6 3.2-1.6v0c14.4-6.4 28.8-12.8 43.2-17.6 1.6 0 3.2-1.6 3.2-1.6 8-3.2 14.4-6.4 20.8-12.8 11.2-11.2 16-25.6 16-40v0-16c0-19.2 14.4-35.2 33.6-36.8v0c14.4-4.8 27.2-4.8 41.6-4.8s27.2 0 41.6 1.6v0c19.2 1.6 33.6 17.6 33.6 36.8v16c0 22.4 12.8 41.6 32 51.2 3.2 1.6 8 3.2 12.8 4.8 12.8 4.8 24 9.6 35.2 14.4 3.2 1.6 6.4 4.8 11.2 4.8 6.4 1.6 12.8 3.2 19.2 3.2 14.4 0 27.2-4.8 36.8-14.4 1.6-1.6 3.2-3.2 4.8-4.8l9.6-9.6c12.8-12.8 33.6-14.4 48-3.2v0c1.6 1.6 1.6 1.6 3.2 3.2 9.6 8 19.2 17.6 28.8 25.6 9.6 9.6 17.6 19.2 25.6 28.8 1.6 1.6 1.6 3.2 3.2 3.2 9.6 14.4 9.6 33.6-3.2 46.4v0l-3.2 3.2-9.6 12.8c-16 16-20.8 41.6-11.2 62.4 1.6 1.6 1.6 3.2 3.2 6.4 6.4 12.8 12.8 27.2 17.6 41.6 0 1.6 1.6 3.2 1.6 6.4 3.2 6.4 6.4 12.8 12.8 19.2 11.2 11.2 25.6 16 40 16v0h16c19.2 0 36.8 16 36.8 35.2v0c1.6 11.2 1.6 24 1.6 36.8 0 14.4 0 27.2-1.6 41.6z" />
<glyph unicode="&#x75;" glyph-name="cylinder" d="M512 352c-212.8 0-390.4 78.4-416 160 0-20.8 0-108.8 0-108.8 0-92.8 185.6-163.2 416-163.2s416 70.4 416 163.2c0 0 0 91.2 0 108.8-25.6-81.6-203.2-160-416-160zM512 128c-212.8 0-390.4 78.4-416 160 0-27.2 0-105.6 0-105.6 0-92.8 185.6-166.4 416-166.4s416 73.6 416 166.4c0 0 0 94.4 0 105.6-25.6-81.6-203.2-160-416-160zM512 864c-230.4 0-416-73.6-416-160v-80c0-91.2 185.6-160 416-160s416 68.8 416 160v80c0 86.4-185.6 160-416 160z" />
<glyph unicode="&#x76;" glyph-name="rocket_alt" horiz-adv-x="800" d="M797.496 927.982c0 3.36-0.111 5.277-0.139 5.804-0.472 8.415-4.721 16.135-11.581 21.023-6.86 4.916-15.552 6.443-23.662 4.138-5.388-1.416-162.048-47.823-387.305-306.712-98.062-16.358-160.549-52.878-197.291-97.062-38.908-46.657-47.712-98.701-47.656-135.36 0.028-31.021 6.026-52.044 6.526-53.794 3.166-10.942 12.719-18.857 24.050-19.912 11.359-1.083 22.217 4.916 27.383 15.080l0.361 0.667c2.138 4.138 14.136 26.078 30.549 45.879 2.138 2.611 4.499 4.943 6.776 7.415 0.417-0.305 0.639-0.833 1.083-1.139l91.314-63.931-14.775-56.682c-1.472-5.554 0.667-11.47 5.332-14.802 4.693-3.333 10.942-3.444 15.747-0.305l49.545 32.687 90.258-63.209c0.444-0.305 1.028-0.361 1.5-0.667-6.415-12.331-14.469-24.384-21.551-33.798-4.666-6.249-8.887-11.414-11.886-14.941l-3.471-3.971-0.861-0.972-0.167-0.194c-7.721-8.276-9.637-20.496-4.832-30.743 4.832-10.248 15.469-16.552 26.744-15.913 2.638 0.305 49.406 2.86 98.618 34.132 24.495 15.663 49.462 38.936 67.93 72.262 18.468 33.298 30.16 76.206 30.105 129.722 0 25.828-2.86 54.349-8.693 85.537 151.19 270.636 160.104 428.047 160.049 459.762v0zM636.142 824.31c43.796 32.521 78.455 52.489 102.617 64.625-10.664-80.372-58.487-276.579-265.998-579.486l-84.176 58.932 141.275 200.401c4.416 6.249 2.916 14.913-3.36 19.329s-14.941 2.944-19.357-3.333l-141.303-200.457-84.454 59.126c143.025 199.874 266.776 315.432 354.757 380.862v0zM189.877 458.417c4.666 19.94 13.636 41.213 30.299 61.181 18.774 22.467 48.323 44.379 94.841 60.709-20.94-26.244-42.296-54.155-64.097-84.065-15.774-3.583-29.466-11.164-41.186-19.968-7.248-5.499-13.719-11.609-19.857-17.857v0zM339.123 321.391l3.027 11.692 7.137-4.999-10.164-6.693zM590.596 382.683c-0.028-45.657-9.665-78.4-23.162-102.783-13.691-24.661-31.826-41.297-50.184-52.85 1.722 3.527 3.61 6.887 5.166 10.609 6.304 15.274 11.136 31.938 11.192 50.017 0 3.749-0.278 7.582-0.778 11.442 20.634 30.688 40.075 60.543 57.599 89.12 0.028-1.833 0.167-3.777 0.167-5.554zM213.4 116.935l63.681 90.953c8.804 12.581 5.749 29.882-6.804 38.686-12.581 8.804-29.882 5.749-38.686-6.832l-63.681-90.953c-8.804-12.581-5.749-29.882 6.832-38.686 12.553-8.804 29.882-5.749 38.658 6.832zM326.848 161.703l-127.417-181.989c-8.804-12.553-5.749-29.882 6.832-38.686 12.553-8.804 29.855-5.749 38.658 6.832l127.417 181.989c8.804 12.553 5.749 29.855-6.832 38.658-12.553 8.804-29.882 5.749-38.658-6.804zM171.104 279.594c-12.553 8.804-29.882 5.749-38.658-6.804l-127.417-181.989c-8.804-12.553-5.749-29.882 6.832-38.686 12.553-8.776 29.855-5.749 38.658 6.832l127.417 181.961c8.804 12.581 5.749 29.882-6.832 38.686zM543.218 613.606c7.609-5.304 16.302-7.859 24.911-7.859 13.691 0 27.161 6.443 35.631 18.524 13.775 19.69 9.026 46.768-10.664 60.543-7.582 5.332-16.274 7.887-24.884 7.887-13.719 0-27.189-6.471-35.659-18.552-13.719-19.662-8.998-46.768 10.664-60.543z" />
<glyph unicode="&#x77;" glyph-name="bell" d="M512 864c-307.2 0-179.2-387.2-336-544 0 0 587.2 0 672 0-148.8 148.8-30.4 544-336 544zM864 272h-704c-35.2 0-64-28.8-64-64s28.8-64 64-64h240c0-62.4 49.6-112 112-112s112 49.6 112 112h240c35.2 0 64 28.8 64 64s-28.8 64-64 64z" />
<glyph unicode="&#x78;" glyph-name="trophy" d="M716.8 395.2c112 75.2 259.2 168 259.2 388.8 0 32-27.2 48-48 48h-160c-25.6 48-105.6 96-256 96s-230.4-48-256-96h-160c-20.8 0-48-16-48-48 0-220.8 134.4-310.4 248-385.6 92.8-60.8 152-102.4 152-176v-62.4c-81.6-8-160-54.4-160-96 0-51.2 100.8-96 224-96s224 44.8 224 96c0 41.6-81.6 86.4-160 96v64c0 75.2 48 110.4 140.8 171.2zM784 752h112c-12.8-128-86.4-195.2-176-256 28.8 62.4 60.8 144 64 256zM128 752h112c3.2-112 35.2-193.6 64-256-89.6 60.8-163.2 128-176 256zM320 768c0 20.8 51.2 80 192 80s192-59.2 192-80-51.2-80-192-80-192 59.2-192 80z" />
<glyph unicode="&#x79;" glyph-name="cross" d="M608 448l208 208c28.8 28.8 28.8 67.2 0 96s-67.2 28.8-96 0l-208-208-208 208c-28.8 28.8-67.2 28.8-96 0s-28.8-67.2 0-96l208-208-208-208c-28.8-28.8-28.8-67.2 0-96s67.2-28.8 96 0l208 208 208-208c28.8-28.8 67.2-28.8 96 0s28.8 67.2 0 96l-208 208z" />
<glyph unicode="&#x7a;" glyph-name="tick" d="M400 292.8l-256 256c-28.8 28.8-83.2 28.8-112 0s-28.8-83.2 0-112l304-304c14.4-14.4 32-32 64-32s49.6 17.6 64 32l528 528c28.8 28.8 28.8 83.2 0 112s-83.2 28.8-112 0l-480-480z" />
<glyph unicode="&#x7c;" glyph-name="caret_left" d="M572.8 180.8l-204.8 204.8c-14.4 14.4-32 32-32 62.4s17.6 49.6 32 62.4l204.8 204.8c27.2 27.2 67.2 27.2 94.4 0s27.2-67.2 0-94.4l-172.8-172.8 172.8-172.8c27.2-27.2 27.2-67.2 0-94.4s-67.2-27.2-94.4 0z" />
</font>
</defs>
</svg>
